<?xml version="1.0" standalone="no"?>
<!DOCTYPE svg PUBLIC "-//W3C//DTD SVG 1.1//EN" "http://www.w3.org/Graphics/SVG/1.1/DTD/svg11.dtd" >
<svg>
<metadata>
Created by FontForge 20090914 at Mon Nov  2 12:55:38 2015
 By www-data
Typeface and data copyright 1999 Microsoft Corporation. All Rights Reserved.
</metadata>
<defs>
<font id="Sylfaen" horiz-adv-x="1024" >
  <font-face 
    font-family="Sylfaen"
    font-weight="400"
    font-stretch="normal"
    units-per-em="2048"
    panose-1="1 10 5 2 5 3 6 3 3 3"
    ascent="1638"
    descent="-410"
    x-height="888.998"
    cap-height="1378"
    bbox="-335.555 -721.001 2907 2062"
    underline-thickness="95"
    underline-position="-137"
    unicode-range="U+0020-U+FFFC"
  />
<missing-glyph horiz-adv-x="512" 
 />
    <glyph glyph-name=".notdef" unicode="fi" horiz-adv-x="512" 
 />
    <glyph glyph-name="IJ" unicode="IJ" horiz-adv-x="1319" 
d="M637 1378c6.66699 0 10 -3.33301 10 -10v-53c0 -6.66699 -3.33301 -10 -10 -10l-174 -17c-6.66699 0 -10 -3.33301 -10 -10v-1178c0 -6.66699 3.33301 -10 10 -10l174 -16c6.66699 0 10 -3.66699 10 -11v-53c0 -6.66699 -3.33301 -10 -10 -10h-551
c-6.66699 -0 -10 3.33301 -10 10v53c0 7.33301 3.33301 11 10 11l174 16c6.66699 0 10 3.33301 10 10v1178c0 6.66699 -3.33301 10 -10 10l-174 17c-6.66699 0 -10 3.33301 -10 10v53c0 6.66699 3.33301 10 10 10h551zM1273 1378
c0.666992 1.33301 1.33301 2.00098 2 2.00098c6 0 9 -4 9 -12v-53c0 -6.66699 -3.66699 -10 -11 -10l-174 -17c-6.66699 0 -10 -3.33301 -10 -10v-1051c0 -144 -19.667 -258.667 -59 -344c-53.333 -115.333 -158.666 -203.333 -315.999 -264c-4.66699 0 -8 2.66699 -10 8
l-24 41l-3 6c-2.66699 6 -1.66699 10.333 3 13c68 42.667 115.333 80 142 112c49.333 59.333 78.666 148.666 87.999 267.999c3.33301 42.667 5 92.667 5 150v1061c0 6.66699 -3.33301 10 -10 10l-174 17c-7.33301 0 -11 3.33301 -11 10v53c0 6.66699 3.66699 10 11 10h542z
" />
    <glyph glyph-name="ij" unicode="ij" horiz-adv-x="1071" 
d="M291 1389c32 0 58.333 -10.167 79 -30.5s31 -46.5 31 -78.5s-10.333 -58.167 -31 -78.5s-47 -30.5 -79 -30.5s-58.5 10.167 -79.5 30.5s-31.5 46.5 -31.5 78.5s10.5 58.167 31.5 78.5s47.5 30.5 79.5 30.5zM66 0c-7.33301 0 -11 3.33203 -11 9.99902v51
c0 7.33301 3.66699 11 11 11l143 14c6.66699 0 10 3.33301 10 10v676c0 6.66699 -3.33301 10 -10 10l-148 17c-6.66699 0 -10 3.33301 -10 10v47c0 6.66699 2.66699 10 8 10l246 41c2.66699 0.666992 6.66699 1.33398 12 2.00098h58c6.66699 0 10 -3.33301 10 -10v-803
c0 -6.66699 3.33301 -10 10 -10l133 -14c7.33301 0 11 -3.66699 11 -11v-51c0 -6.66699 -3.66699 -10 -11 -10h-462zM814 1389c32.667 0 59.333 -10 80 -30s31 -46.333 31 -79c0 -32 -10.5 -58.167 -31.5 -78.5s-47.5 -30.5 -79.5 -30.5s-58.333 10.167 -79 30.5
s-31 46.5 -31 78.5s10.333 58.167 31 78.5s47 30.5 79 30.5zM828.999 906.999c2.66699 0.666992 6.66797 1.33203 12.001 1.99902h57c7.33301 0 11 -3.33301 11 -10v-838c0 -142.667 -18.333 -253 -55 -331c-52 -110 -152.667 -194.667 -302 -254
c-4.66699 0 -8 2.66699 -10 8l-25 43c-4 6.66699 -4 12 0 16c65.333 41.333 110.666 77.333 135.999 108c40 49.333 66.333 113 79 191c7.33301 44.667 11 114.334 11 209.001v721c0 6.66699 -3.66699 10 -11 10l-147 17c-6.66699 0 -10 3.33301 -10 10v47
c2 6.66699 4.66699 10 8 10z" />
    <glyph glyph-name="uniFB13" unicode="&#x574;&#x576;" horiz-adv-x="2185" 
d="M2144 10l-10.0029 -10.001h-306v88c-18 -11.333 -62 -34 -132 -68c-63.333 -32.667 -122 -49 -176 -49c-74 0 -136.667 25.167 -188 75.5s-77 111.833 -77 184.5v556c0 6.66699 -3.33301 10 -10 10l-297 1v-700l10 -12l131 -14c6.66699 0 10 -3.66699 10 -11v-51l-10 -10
h-307v98c-18 -11.333 -68.333 -37.333 -151 -78c-61.333 -31.333 -120 -47.666 -176 -48.999c-73.333 -1.33301 -135.833 23.5 -187.5 74.5s-77.5 112.833 -77.5 185.5v541c0 6.66699 -3.33301 10 -10 10l-129 17c-6.66699 0 -10 3.33301 -10 10v47
c0 6.66699 2.66699 10 8 10l225 41c7.33301 1.33301 14.333 2 21 2h51c6.66699 0 10 -3.33301 10 -10v-602c0 -139.333 60.333 -209 181 -209c46.667 0 127.667 26 243 78v632h-38c-98 0 -172 13.667 -222 41c-67.333 36.667 -101 103.667 -101 201
c0 56.667 12.333 106.667 37 150c30 52 71.333 78 124 78c26.667 0 51 -1 73 -3l8 -12l-17 -129l-14 -8c-18.667 18 -44.667 27 -78 27c-40.667 0 -61 -31.667 -61 -95c0 -68.667 26 -115 78 -139c34.667 -16 92.334 -24 173.001 -24h38v327c0 64 23 118.333 69 163
c48.667 47.333 111 71 187 71c26.667 0 58 -7 94 -21l4 -10l21 -180l-7 -10h-32l-15 4c-19.333 53.333 -54.666 80 -105.999 80c-72.667 0 -109 -38.333 -109 -115c0 -83.333 20.667 -178.333 62 -285v-24h463c6.66699 0 10 -3.33301 10 -10v-578
c0 -139.333 60.333 -209 181 -209c46.667 0 121.334 22.667 224.001 68v614c-8 8 -11 12 -9 12l-151 17c-7.33301 0 -11 3.33301 -11 10v47c0 6.66699 3 10 9 10l245 41c8 1.33301 15 2 21 2h49c2 0 6.33301 -3.33301 13 -10l1 -801l10 -12l131 -14
c6.66699 0 10 -3.66699 10 -11v-51z" />
    <glyph glyph-name="uniFB14" unicode="&#x574;&#x565;" horiz-adv-x="2168" 
d="M2117 10c0 0.666992 -3.66895 -2.66699 -11.002 -10h-307v92l-130 -75c-60.667 -30.667 -119 -46 -175 -46c-56.667 0 -104.667 18.667 -144 56c-44.667 43.333 -67 102.666 -67 177.999v942c0 52 -15.333 95.667 -46 131c-32 38 -73.667 57 -125 57
c-117.333 0 -176 -90.667 -176 -272v-965c0 -6.66699 3.33301 -10 10 -10l140 -16c6.66699 0 10 -3.66699 10 -11v-52c0 -6.66699 -2.66699 -10 -8 -10l-302 -1c-6.66699 0 -10 3.33301 -10 10l1 80c-137.333 -78 -237 -117 -299 -117
c-75.333 0 -139.166 25.667 -191.499 77s-78.5 114.333 -78.5 189v535c0 6.66699 -3.33301 10 -10 10l-147 17c-6.66699 0 -10 3.33301 -10 10v47c0 6.66699 2.66699 10 8 10l246 41c8 1.33301 15 2 21 2h48c6.66699 0 10 -3.33301 10 -10v-602
c0.666992 -70.667 15.834 -123.167 45.501 -157.5s78.167 -51.5 145.5 -51.5c36 0 104.333 23 205 69v857c0 126 28 224.333 84 295c61.333 77.333 153 116 275 116c80 0 151.667 -24 215 -72c68 -51.333 103 -114.666 105 -189.999v-280c6 -6 10 -9 12 -9h559
c7.33301 0 11 -3.33301 11 -10v-67c0 -7.33301 -3.66699 -11 -11 -11h-561l-10 -10v-528c-1.33301 -105.333 37 -158 115 -158c34.667 0 113 24 235 72v338l10 12h142l14 -12v-408c4 -4 7.33301 -6 10 -6l131 -14c7.33301 0 11 -3.66699 11 -11v-51z" />
    <glyph glyph-name="uniFB15" unicode="&#x574;&#x56b;" horiz-adv-x="2199" 
d="M2158 10c0 -6.66699 -3.33301 -10 -10 -10h-449c-6.66699 -0 -10 3.33301 -10 10v51c0 7.33301 3.33301 11 10 11l129 14c6.66699 0 10 3.33301 10 10v469c0 66.667 -14.333 121.667 -43 165c-32.667 50 -81 75 -145 75c-67.333 0 -137 -20.667 -209 -62v-1206l169 -14
c6.66699 -0.666992 10 -4 10 -10v-52l-20 -10h-491c-6.66699 0 -10 3.33301 -10 10v52c0 6.66699 3.33301 10 10 10l153 14l13 17v1594c0 53.333 -13.333 98.333 -40 135c-29.333 42 -69.666 63 -120.999 63c-61.333 0 -105 -23.667 -131 -71
c-23.333 -43.333 -35 -114 -35 -212v-969c2.66699 -6.66699 6 -10 10 -10l148 -16c6.66699 0 10 -3.66699 10 -11v-47c0 -6.66699 -2.66699 -10 -8 -10h-315c-7.33301 -0 -11 3.33301 -11 10v82c-16.667 -12.667 -57.667 -35.667 -123 -69
c-64.667 -36.667 -128 -54 -190 -52c-79.333 2 -142.5 27.833 -189.5 77.5s-70.5 115.5 -70.5 197.5v526c0 6.66699 -3.33301 10 -10 10l-148 17c-6.66699 0 -10 3.33301 -10 10v47c0 6.66699 2.66699 10 8 10l246 41c8 1.33301 14.667 2 20 2h50
c6.66699 0 10 -3.33301 10 -10v-600c1.33301 -140.667 62 -211 182 -211c57.333 0 132.333 25.333 225 76v850c0 274 116.333 411 349 411c206 0 309.333 -101 310 -303v-304c20 12.667 67 35.667 141 69c42.667 20.667 92 31 148 31c69.333 0 130.666 -24.667 183.999 -74
c60 -56 90 -129 90 -219v-529c0 -6.66699 3.66699 -10 11 -10l133 -14c6.66699 0 10 -3.66699 10 -11v-51z" />
    <glyph glyph-name="uniFB16" unicode="&#x57e;&#x576;" horiz-adv-x="2180" 
d="M2139 10c0 -6.66699 -2.66992 -10 -8.00293 -10h-315c-7.33301 -0 -11 3.33301 -11 10v82c-16.667 -12.667 -57.667 -35.667 -123 -69c-64 -36.667 -127.333 -54 -190 -52c-79.333 2 -142.166 27.833 -188.499 77.5s-70.166 115.5 -71.499 197.5v552l-284 2v-1246
c4 -7.33301 8 -11 12 -11h220c6.66699 0 10 -3.33301 10 -10v-72c0 -4 -3.33301 -7.33301 -10 -10h-389l-9 10v637c-16.667 -12.667 -50 -34.334 -100 -65.001c-63.333 -41.333 -135 -62 -215 -62c-68 0 -127 23.333 -177 70c-52.667 49.333 -79.667 110.666 -81 183.999
v547c0 6.66699 -3.33301 10 -10 10l-150 17c-6.66699 0 -10 3.33301 -10 10v47c0 6.66699 2.66699 10 8 10l248 41c8 1.33301 14.667 2 20 2h50c6.66699 0 10 -3.33301 10 -10v-602c0 -139.333 61.333 -209 184 -209c62.667 0 137 28.667 223 86v625h-37
c-96.667 -1.33301 -171.667 12.334 -225 41.001c-69.333 36.667 -104 103.334 -104 200.001c0 56.667 12.667 106.667 38 150c30 52 71.333 78 124 78c26.667 0 50.334 -0.666992 71.001 -2l8 -13l-16 -129l-14 -8c-18.667 18 -44.667 27 -78 27
c-41.333 0 -62 -31.333 -62 -94c0 -110.667 86 -166 258 -166h37v426c0 6.66699 -3.33301 10 -10 10l-149 16c-7.33301 0 -11 3.66699 -11 11v47c0 6.66699 3 10 9 10l245 41c8 1.33301 15 2 21 2h51c6.66699 0 10 -3.33301 10 -10v-553h450v-584
c1.33301 -140.667 62 -211 182 -211c57.333 0 132.333 25.333 225 76v608c0 6.66699 -3.33301 10 -10 10l-147 17c-7.33301 0 -11 3.33301 -11 10v47c0 6.66699 3 10 9 10l245 41c8 1.33301 15 2 21 2h49c6.66699 0 10 -3.33301 10 -10v-805c0 -6.66699 3.33301 -10 10 -10
l148 -16c6.66699 0 10 -3.66699 10 -11v-47z" />
    <glyph glyph-name="uniFB17" unicode="&#x574;&#x56d;" horiz-adv-x="2664" 
d="M2623 10c0 0.666992 -3.66797 -2.66699 -11.001 -10h-303v92c-16.667 -12.667 -56 -35.667 -118 -69c-62 -36.667 -125.667 -54 -191 -52c-79.333 2 -142.833 28 -190.5 78s-71.5 115.667 -71.5 197v321c0 152 -50.667 228 -152 228c-48 0 -96.333 -9.66699 -145 -29
v-1229l169 -14c6.66699 -0.666992 10 -4 10 -10v-52l-20 -10h-491c-6.66699 0 -10 3.33301 -10 10v52c0 6.66699 3.33301 10 10 10l153 14l13 17v1594c0 53.333 -13.333 98.333 -40 135c-29.333 42 -69.666 63 -120.999 63c-61.333 0 -105 -23.667 -131 -71
c-23.333 -43.333 -35 -114 -35 -212v-969c0 -6.66699 3.33301 -10 10 -10l148 -16c6.66699 0 10 -3.66699 10 -11v-47c0 -6.66699 -2.66699 -10 -8 -10h-315c-7.33301 -0 -11 3.33301 -11 10v82c-16.667 -12.667 -57.667 -35.667 -123 -69
c-64 -36.667 -127.333 -54 -190 -52c-79.333 2 -142.5 27.833 -189.5 77.5s-69.833 115.5 -68.5 197.5v526c0 6.66699 -3.33301 10 -10 10l-148 17c-6.66699 0 -10 3.33301 -10 10v47c0 6.66699 2.66699 10 8 10l244 41c8 1.33301 14.667 2 20 2h52
c6.66699 0 10 -3.33301 10 -10v-600c0 -140.667 60 -211 180 -211c57.333 0 132.333 25.333 225 76v850c0 274 116.333 411 349 411c206 0 309.333 -101 310 -303v-271l111 50c25.333 11.333 64 17 116 17c84.667 0 147.667 -34.333 189 -103
c31.333 -51.333 47 -113.333 47 -186v-330c0 -63.333 15.833 -114.333 47.5 -153s77.167 -58 136.5 -58c57.333 0 131 25.333 221 76v608c0 6.66699 -3.33301 10 -10 10l-147 17c-7.33301 0 -11 3.33301 -11 10v47c0 6.66699 3 10 9 10l245 41c8 1.33301 15 2 21 2h49
c6.66699 0 10 -3.33301 10 -10v-813l137 -14c7.33301 0 11 -3.66699 11 -11v-51z" />
    <glyph glyph-name="glyph624" unicode="&#x548;&#x552;" horiz-adv-x="2928" 
d="M1521 10c0 -6.66699 -3.66699 -9.99902 -11 -9.99902h-555c-6.66699 2.66699 -10 6 -10 10v53c0 7.33301 3.33301 11 10 11l174 16c7.33301 0 11 3.33301 11 10v920c-1.33301 96 -42.333 172 -123 228c-67.333 46 -143.666 69 -228.999 69
c-106.667 0 -190.834 -28.833 -252.501 -86.5s-92.5 -134.834 -92.5 -231.501v-899c0 -6.66699 3.66699 -10 11 -10l184 -16c6.66699 0 10 -3.66699 10 -11v-53c0 -6.66699 -3.33301 -10 -10 -10h-555c-6.66699 -0 -10 3.33301 -10 10v53c0 7.33301 3.33301 11 10 11l172 16
c6.66699 0 10 3.33301 10 10v904c0 129.333 60 232 180 308c100.667 64.667 214 97 340 97c159.333 0 289.333 -41.333 390 -124c95.333 -78.667 143 -174 143 -286v-899c0 -6.66699 3.33301 -10 10 -10l182 -16c7.33301 0 11 -3.66699 11 -11v-53zM2907 430.001
c0 -6.66699 -3.33301 -10 -10 -10h-350l-11 10v119c0 112 -13 194.333 -39 247c-40 81.333 -115.667 122 -227 122c-84.667 0 -154 -20.333 -208 -61c-52.667 -38 -79 -83.333 -79 -136v-619l10 -12l181 -16c6.66699 0 10 -3.66699 10 -11v-53
c0 -6.66699 -3.33301 -10 -10 -10h-551c-6.66699 0 -10 3.33301 -10 10v53c0 7.33301 3.33301 11 10 11l172 16c6.66699 0 10 3.33301 10 10v1178c0 6.66699 -3.33301 10 -10 10l-172 17c-6.66699 0 -10 3.33301 -10 10v53c0 6.66699 3.33301 10 10 10h547
c6.66699 0 10 -3.33301 10 -10v-53c0 -6.66699 -3.33301 -10 -10 -10l-177 -17l-10 -10v-360c95.333 61.333 191 92 287 92c124.667 0 226.334 -28 305 -84c93.333 -66 140 -164.333 140 -295v-111c0 -6.66699 3.33301 -10 10 -10l172 -16c6.66699 0 10 -3.66699 10 -11v-53
z" />
    <glyph glyph-name="glyph673" unicode="&#x578;&#x582;" horiz-adv-x="1898" 
d="M1108 10c0 -6.66699 -3.33301 -10 -10 -10h-449c-6.66699 -0 -10 3.33301 -10 10v51c0 7.33301 3.33301 11 10 11l129 14c6.66699 0 10 3.33301 10 10v469c0 68.667 -16 123.667 -48 165c-34.667 46 -84.667 69 -150 69c-64.667 0 -136.334 -22.667 -215.001 -68v-635
c0 -6.66699 3.33301 -10 10 -10l129 -14c6.66699 0 10 -3.66699 10 -11v-51c0 -6.66699 -3.33301 -10 -10 -10h-459c-6.66699 -0 -10 3.33301 -10 10v51c0 7.33301 3.33301 11 10 11l144 14c6.66699 0 10 3.33301 10 10v676c0 6.66699 -3.33301 10 -10 10l-148 17
c-6.66699 0 -10 3.33301 -10 10v47c0 6.66699 2.66699 10 8 10l246 41c8 1.33301 14.667 2 20 2h50c6.66699 0 10 -3.33301 10 -10v-88c19.333 12.667 69 38 149 76c40.667 20.667 89.334 31 146.001 31c81.333 0 149 -28.667 203 -86s81 -126.333 81 -207v-529
c0 -6.66699 3.66699 -10 11 -10l133 -14c6.66699 0 10 -3.66699 10 -11v-51zM1871 10c0 -6.66699 -3.66699 -10 -11 -10h-571v772c0 6.66699 -3.33301 10 -10 10l-148 17c-6.66699 0 -10 3.33301 -10 10v47c0 6.66699 2.66699 10 8 10l246 41c8 1.33301 14.667 2 20 2h50
c6.66699 0 10 -3.33301 10 -10v-813h401l15 -10v-66z" />
    <glyph glyph-name="space" unicode=" " horiz-adv-x="512" 
 />
    <glyph glyph-name="space" unicode="&#xa0;" horiz-adv-x="512" 
 />
    <glyph glyph-name="exclam" unicode="!" horiz-adv-x="543" 
d="M254 332c-6 0 -9.33105 3.33301 -9.99805 10l-80 1026c-0.666992 6.66699 2.66602 10 9.99902 10h215c7.33301 0 10.666 -3.33301 9.99902 -10l-80 -1026c-0.666992 -6.66699 -4 -10 -10 -10h-55zM281.002 195c30 0 56.167 -11.5 78.5 -34.5s33.5 -49.167 33.5 -78.5
s-11.333 -55.166 -34 -77.499s-48.667 -33.5 -78 -33.5c-30 0 -56 11.167 -78 33.5s-33 48.166 -33 77.499c0 30 11 56.333 33 79s48 34 78 34z" />
    <glyph glyph-name="quotedbl" unicode="&#x22;" horiz-adv-x="713" 
d="M559 1409c6.66699 0 10 -3.33301 10 -10l-45 -477c0 -7.33301 -3.33301 -11 -10 -11h-53c-6.66699 0 -10 3.66699 -10 11l-43 477c0 6.66699 2.66699 10 8 10h143zM295 1409c6.66699 0 10 -3.33301 10 -10l-45 -477c0 -7.33301 -3.33301 -11 -10 -11h-53
c-7.33301 0 -11 3.66699 -11 11l-43 477c0 6.66699 3 10 9 10h143z" />
    <glyph glyph-name="numbersign" unicode="#" 
d="M369 498h231l53 282h-231zM428 1270c0 2.66699 1 4.66797 3 6.00098s4.33301 2 7 2h68c4 0 7 -1 9 -3s2.33301 -5 1 -9l-74 -377h232l74 381c0 2.66699 1.33301 4.66699 4 6s4.66699 2 6 2h67c2.66699 0 5.5 -1 8.5 -3s3.83301 -5 2.5 -9l-74 -377h219
c2.66699 0 5.33398 -1 8.00098 -3s3.33398 -5 2.00098 -9l-18 -89c0 -2.66699 -1 -4.66699 -3 -6s-4.33301 -2 -7 -2h-222l-53 -282h213c2.66699 0 5.33398 -1.5 8.00098 -4.5s3.33398 -5.83301 2.00098 -8.5l-18 -88c0 -2.66699 -1 -4.66699 -3 -6s-4.33301 -2 -7 -2h-215
l-72 -381c0 -2.66699 -1 -4.66699 -3 -6s-4.33301 -2 -7 -2h-68c-4 0 -7 1 -9 3s-2.33301 5 -1 9l72 377h-232l-72 -381c0 -2.66699 -1.33301 -4.66699 -4 -6s-4.66699 -2 -6 -2h-67c-2.66699 0 -5.5 1 -8.5 3s-3.83301 5 -2.5 9l72 377h-217
c-2.66699 0 -5.33398 1 -8.00098 3s-3.33398 5 -2.00098 9l18 93v-5c0 3.33301 1 5.66602 3 6.99902s4.33301 2 7 2h220l53 282h-211c-2.66699 0 -5.33398 1.33301 -8.00098 4s-3.33398 5.66699 -2.00098 9l18 88c0 2.66699 1 4.66699 3 6s4.33301 2 7 2h213z" />
    <glyph glyph-name="dollar" unicode="$" 
d="M261 1042c0 -27.333 4.83301 -52.168 14.5 -74.501s23 -42.666 40 -60.999s37.167 -35 60.5 -50s49.333 -29.5 78 -43.5v430c-26 -5.33301 -50.667 -13.5 -74 -24.5s-43.833 -25 -61.5 -42s-31.667 -36.833 -42 -59.5s-15.5 -47.667 -15.5 -75zM755 300.998
c0 31.333 -5.5 59.668 -16.5 85.001s-26.167 47.833 -45.5 67.5s-41.166 37.334 -65.499 53.001s-50.833 30.5 -79.5 44.5v-469c28.667 5.33301 55.667 14.166 81 26.499s47.166 27.666 65.499 45.999s33 39.833 44 64.5s16.5 52 16.5 82zM763 980
c-2.66699 2 -4.00098 5 -4.00098 9l-41 219l-2 1c-1.33301 0.666992 -3.33301 1 -6 1c-19.333 10 -43.666 18.333 -72.999 25s-59 11.334 -89 14.001v-477l75 -33c44 -18.667 85.5 -39.334 124.5 -62.001s72.5 -48 100.5 -76s49.833 -60 65.5 -96s23.5 -78 23.5 -126
c0 -58.667 -10.333 -110.834 -31 -156.501s-48.334 -85.334 -83.001 -119.001s-75.5 -60.667 -122.5 -81s-97.833 -34.5 -152.5 -42.5v-164c0 -7.33301 -3.66699 -11 -11 -11h-73c-6.66699 0 -10 3.66699 -10 11v155h-25c-54.667 0 -110 4.83301 -166 14.5
s-107.333 21.167 -154 34.5c-2.66699 2 -5 3.66699 -7 5s-3 4.66602 -3 9.99902v295c0 4 1 7.33301 3 10s4.33301 4 7 4h80c1.33301 0 3.5 -1 6.5 -3s4.5 -5 4.5 -9l36 -217c0 -1.33301 3 -3.33301 9 -6c13.333 -7.33301 28.5 -13 45.5 -17s34.833 -7.66699 53.5 -11
s37.167 -5.66602 55.5 -6.99902s34.833 -2 49.5 -2h5v522l-54 24c-42 18 -82.167 37.667 -120.5 59s-71.5 46 -99.5 74s-50.5 59.333 -67.5 94s-25.5 75.334 -25.5 122.001c0 53.333 9.83301 101.166 29.5 143.499s46.334 79.5 80.001 111.5s72.667 57.5 117 76.5
s91.166 32.5 140.499 40.5v164c0 6.66699 3.33301 10 10 10h73c7.33301 0 11 -3.33301 11 -10v-157c23.333 0 47.833 -1.5 73.5 -4.5s51.834 -6.83301 78.501 -11.5l78 -14c25.333 -4.66699 48.333 -10 69 -16c2.66699 -1.33301 5 -2.66602 7 -3.99902
s3 -4.66602 3 -9.99902v-295c0 -4 -1 -7.33301 -3 -10s-4.33301 -4 -7 -4h-78c-1.33301 0 -3.33301 1 -6 3z" />
    <glyph glyph-name="percent" unicode="%" horiz-adv-x="1720" 
d="M1241 1421l53.001 -31.999c6 -6 6.66699 -11 2 -15l-798 -1403c-1.33301 -4 -3.83301 -6.33301 -7.5 -7s-6.16699 -0.333984 -7.5 0.999023l-55 33c-5.33301 4 -6 9.33301 -2 16l799 1403c5.33301 6.66699 10.666 8 15.999 4zM1347 57.001
c28.667 0 54.1641 8.16602 76.4971 24.499s41.333 39.666 57 69.999s27.667 65.833 36 106.5s12.5 85.667 12.5 135s-4.5 95.5 -13.5 138.5s-21.667 79.833 -38 110.5s-36.166 55.167 -59.499 73.5s-48.666 27.5 -75.999 27.5c-31.333 0 -58.5 -8.16699 -81.5 -24.5
s-42.667 -39.5 -59 -69.5s-28.666 -65.5 -36.999 -106.5s-12.5 -86.5 -12.5 -136.5c0 -49.333 4.5 -95.166 13.5 -137.499s22 -79.166 39 -110.499s37.5 -56 61.5 -74s51 -27 81 -27zM1334 -29c-54.667 0 -102.83 10.3291 -144.497 30.9961s-76.834 49.334 -105.501 86.001
s-50.5 81 -65.5 133s-22.5 109.333 -22.5 172s8.33301 120.334 25 173.001s40.334 98.834 71.001 138.501s67.5 70.334 110.5 92.001s90.5 32.5 142.5 32.5c54 0 101.833 -10.167 143.5 -30.5s77.167 -49.333 106.5 -87s51.666 -82 66.999 -133s23 -107.833 23 -170.5
c0 -63.333 -8.33301 -121.5 -25 -174.5s-40.334 -99 -71.001 -138s-67.834 -69.5 -111.501 -91.5s-91.5 -33 -143.5 -33zM385.002 636.996c28.667 0 54.667 8.16602 78 24.499s42.5 39.5 57.5 69.5s26.5 65.5 34.5 106.5s12 86.167 12 135.5s-4.33301 95.166 -13 137.499
s-21.167 79.5 -37.5 111.5s-35.833 56.833 -58.5 74.5s-48.334 26.5 -77.001 26.5c-30 0 -57 -8.16699 -81 -24.5s-44.167 -39.166 -60.5 -68.499s-28.666 -64.833 -36.999 -106.5s-12.5 -87.834 -12.5 -138.501c0 -49.333 4.5 -95.166 13.5 -137.499
s21.667 -79.166 38 -110.499s36.833 -55.833 61.5 -73.5s52 -26.5 82 -26.5zM373.002 550.995c-53.333 0 -100.834 10.167 -142.501 30.5s-77.167 49.333 -106.5 87s-51.5 82.167 -66.5 133.5s-22.5 108.333 -22.5 171s8.5 120.667 25.5 174s40.5 99.333 70.5 138
s66.5 69 109.5 91s90.5 33 142.5 33c54.667 0 102.834 -10.167 144.501 -30.5s77.167 -49 106.5 -86s51.5 -81.5 66.5 -133.5s22.5 -109.333 22.5 -172s-8.16699 -120.667 -24.5 -174s-39.833 -99.5 -70.5 -138.5s-67.5 -69.333 -110.5 -91s-91.167 -32.5 -144.5 -32.5z" />
    <glyph glyph-name="ampersand" unicode="&#x26;" horiz-adv-x="1497" 
d="M361.5 652.5c-21 -21 -39.332 -44.501 -54.999 -70.501s-28 -52.667 -37 -80s-13.5 -54.666 -13.5 -81.999c0 -48 8.16699 -91.5 24.5 -130.5s39.166 -72 68.499 -99s63.5 -48.167 102.5 -63.5s80.167 -23 123.5 -23c50.667 0 101 12 151 36s94.667 62.667 134 116
l-428 451c-26 -15.333 -49.5 -33.5 -70.5 -54.5zM541.001 1315c-20.667 0 -40.502 -3.83105 -59.502 -11.498s-35.667 -18.334 -50 -32.001s-25.666 -30.334 -33.999 -50.001s-12.5 -42.5 -12.5 -68.5c0 -49.333 14 -97.5 42 -144.5s67.333 -97.167 118 -150.5
c62.667 31.333 109.334 68.833 140.001 112.5s46 94.167 46 151.5c0 61.333 -16.667 108.833 -50 142.5s-80 50.5 -140 50.5zM574.999 1409c46.667 0 89.1719 -7.16602 127.505 -21.499s71.166 -33.5 98.499 -57.5s48.166 -52 62.499 -84s21.5 -66.333 21.5 -103
c0 -28.667 -3.83301 -58 -11.5 -88s-21.667 -60 -42 -90s-49 -59.333 -86 -88s-84.833 -56.667 -143.5 -84l365 -385c17.333 27.333 34.166 57.666 50.499 90.999s30.333 67 42 101s21.667 67.5 30 100.5s13.833 62.167 16.5 87.5c0 10 -4.66699 15 -14 15l-150 12
c-6.66699 0 -10 3.33301 -10 10v54c0 6.66699 3.33301 10 10 10h438c7.33301 0 11 -3.33301 11 -10v-54c0 -6.66699 -3.66699 -10 -11 -10l-166 -12c-8 -1.33301 -12.667 -3.33301 -14 -6s-2 -5.66699 -2 -9c-2.66699 -28.667 -8.5 -61.334 -17.5 -98.001
s-21 -75.167 -36 -115.5s-31.667 -81.333 -50 -123s-38.5 -80.167 -60.5 -115.5l232 -242c2.66699 -2.66699 6 -4 10 -4l170 -16c6.66699 0 10 -3.66699 10 -11v-53c0 -6.66699 -3.33301 -10 -10 -10h-330c-4 -0 -7.33301 1.33301 -10 4l-176 182c-26 -30 -53 -58 -81 -84
s-59.5 -48.833 -94.5 -68.5s-74.667 -35 -119 -46s-95.833 -16.5 -154.5 -16.5s-112.5 9.66699 -161.5 29s-92 45.333 -129 78s-66 71.167 -87 115.5s-31.5 91.833 -31.5 142.5c0 91.333 24.5 172.5 73.5 243.5s124.833 135.167 227.5 192.5
c-27.333 31.333 -50.333 60 -69 86s-33.667 51.333 -45 76s-19.5 49.667 -24.5 75s-7.5 52.333 -7.5 81c0 46 8.66699 88.5 26 127.5s41.666 72.833 72.999 101.5s68.166 50.834 110.499 66.501s88.5 23.5 138.5 23.5z" />
    <glyph glyph-name="quotesingle" unicode="'" horiz-adv-x="449" 
d="M295 1409c6.66699 0 10 -3.33301 10 -10l-45 -477c0 -7.33301 -3.33301 -11 -10 -11h-53c-7.33301 0 -11 3.66699 -11 11l-43 477c0 6.66699 3 10 9 10h143z" />
    <glyph glyph-name="parenleft" unicode="(" horiz-adv-x="670" 
d="M604 1417c2 -2.66699 3.00195 -5.67188 3.00195 -9.00488c0 -2.66699 -1 -5.66699 -3 -9c-126 -128.667 -216 -279 -270 -451c-42.667 -136 -64 -277.333 -64 -424c0 -262.667 59 -487 177 -673c46 -72.667 98.333 -139.667 157 -201
c2.66699 -3.33301 4 -6.66602 4 -9.99902s-1.33301 -6.33301 -4 -9l-47 -32c-2.66699 -3.33301 -5.66699 -4.66602 -9 -3.99902l-4 2c-1.33301 0.666992 -2.33301 1.33398 -3 2.00098c-52.667 45.333 -100.334 94 -143.001 146c-54 66 -101.333 140 -142 222
c-88.667 178.667 -133 364.334 -133 557.001c0 145.333 26.667 290 80 434c34 92.667 75 174.334 123 245.001c51.333 76 99.666 136.667 144.999 182l70 65c2 1.33301 4.33301 2 7 2c3.33301 0 6.33301 -0.666992 9 -2z" />
    <glyph glyph-name="parenright" unicode=")" horiz-adv-x="670" 
d="M67 -369c-3.33301 1.33301 -5.00195 4.33398 -5.00195 9.00098c0 4 1.66699 7.33301 5 10c126.667 133.333 216.334 283.333 269.001 450c42 133.333 63 274.666 63 423.999c0 262.667 -58.333 487.334 -175 674.001c-46 72.667 -98.667 139.667 -158 201
c-6 6.66699 -6 12.667 0 18l47 33c4 1.33301 7.33301 2 10 2s4.66699 -0.666992 6 -2c59.333 -52.667 107 -101.667 143 -147c60.667 -78.667 108 -152.667 142 -222c61.333 -126 102.333 -261.667 123 -407c6.66699 -50.667 10 -100.667 10 -150
c0 -189.333 -44.333 -375 -133 -557c-56 -114.667 -127.667 -215.667 -215 -303c-23.333 -23.333 -46.666 -45 -69.999 -65l-6 -4c-2.66699 -0.666992 -6 0.666016 -10 3.99902z" />
    <glyph glyph-name="asterisk" unicode="*" horiz-adv-x="639" 
d="M123 920c-1.33301 -3.33301 -3.66797 -4.33301 -7.00098 -3c-3.33301 0.666992 -6.66602 2.33398 -9.99902 5.00098l-51 90c-5.33301 6.66699 -4 11.334 4 14.001l203 78l-203 78c-8 2.66699 -9.33301 7.33398 -4 14.001l51 90c3.33301 4 6.66602 6 9.99902 6
c2.66699 -0.666992 5 -2 7 -4l168 -135l-33 213c0 8 3.33301 12 10 12h103c6.66699 0 10 -4 10 -12l-33 -213l168 135c2 1.33301 4.66699 2 8 2c3.33301 -0.666992 6 -2 8 -4l52 -90c5.33301 -6.66699 4 -11.334 -4 -14.001l-203 -78l203 -78
c8 -2.66699 9.33301 -7.33398 4 -14.001l-52 -90c-2.66699 -2.66699 -5.66699 -4.33398 -9 -5.00098c-3.33301 -1.33301 -5.66602 -0.333008 -6.99902 3l-168 135l33 -213c0 -8.66699 -3.33301 -13 -10 -13h-103c-6.66699 0 -10 4.33301 -10 13l33 213z" />
    <glyph glyph-name="plus" unicode="+" 
d="M61 508c0 6.66699 3.66699 10 11 10h389v414c0 6.66699 3.33301 10 10 10h82c6.66699 0 10 -3.33301 10 -10v-414h389c7.33301 0 11 -3.33301 11 -10v-74c0 -6.66699 -3.66699 -10 -11 -10h-389v-414c0 -6.66699 -3.33301 -10 -10 -10h-82
c-6.66699 -0 -10 3.33301 -10 10v414h-389c-7.33301 0 -11 3.33301 -11 10v74z" />
    <glyph glyph-name="comma" unicode="," horiz-adv-x="512" 
d="M127 -207c-1.33301 2 -2 3.33398 -2 4.00098c0.666992 2.66699 2 4.66699 4 6c96 45.333 144 102 144 170c0 75.333 -39 113 -117 113c-19.333 19.333 -29 41.333 -29 66c0 60 32.333 90 97 90c44 0 83.333 -16.333 118 -49c37.333 -36.667 56 -86.667 56 -150
c0 -128.667 -80.667 -227 -242 -295c-4 -2.66699 -7.33301 -1.33398 -10 3.99902z" />
    <glyph glyph-name="hyphen" unicode="-" horiz-adv-x="776" 
d="M113 475c-7.33301 0 -11 3.33301 -11 10v86c0 7.33301 3.66699 11 11 11h551c6.66699 0 10 -3.66699 10 -11v-86c0 -6.66699 -3.33301 -10 -10 -10h-551z" />
    <glyph glyph-name="hyphen" unicode="&#xad;" horiz-adv-x="776" 
d="M113 475c-7.33301 0 -11 3.33301 -11 10v86c0 7.33301 3.66699 11 11 11h551c6.66699 0 10 -3.66699 10 -11v-86c0 -6.66699 -3.33301 -10 -10 -10h-551z" />
    <glyph glyph-name="period" unicode="." horiz-adv-x="512" 
d="M255 207c52.667 0 88.999 -23.999 108.999 -71.999c6 -14.667 9 -30.334 9 -47.001c0 -32 -11.667 -59 -35 -81c-25.333 -24 -53 -36 -83 -36c-32 0 -59.5 11.5 -82.5 34.5s-34.5 50.5 -34.5 82.5c0 33.333 11.333 61.5 34 84.5s50.334 34.5 83.001 34.5z" />
    <glyph glyph-name="slash" unicode="/" horiz-adv-x="635" 
d="M627 1419c6.66699 -2 8.66699 -6.66699 6 -14l-553 -1526c-1.33301 -6.66699 -6 -8.66699 -14 -6l-76 25c-6.66699 2 -8.66699 6.66699 -6 14l553 1526c2 6 6.66699 8 14 6z" />
    <glyph glyph-name="zero" unicode="0" 
d="M524 61c84.667 0 147.167 53.334 187.5 160.001s60.5 257.667 60.5 453s-24 351.333 -72 468s-114.667 175 -200 175c-84.667 0 -147.167 -53.333 -187.5 -160s-60.5 -257.334 -60.5 -452.001c0 -195.333 24 -351 72 -467c48 -118 114.667 -177 200 -177zM530 1409
c152 0 262.831 -60.332 332.498 -180.999s104.5 -293 104.5 -517c0 -230.667 -39.667 -410.334 -119 -539.001c-84 -135.333 -202 -203 -354 -203c-151.333 0 -262.666 61 -333.999 183c-68.667 115.333 -103 287.333 -103 516c0 230 40 409.667 120 539
c82.667 134.667 200.334 202 353.001 202z" />
    <glyph glyph-name="one" unicode="1" 
d="M610 1391c5.33301 0 8 -3 8 -9v-1284c0 -7.33301 4.33301 -11.333 13 -12l174 -14c5.33301 -0.666992 8 -3.66699 8 -9v-55c0 -5.33301 -2.66699 -8 -8 -8h-557c-5.33301 0 -8 2.66699 -8 8v55c0 5.33301 2.66699 8.33301 8 9l184 14c2.66699 0 5.33398 1 8.00098 3
s4 5 4 9v1098c0 8 -3.33301 12 -10 12l-217 -28c-3.33301 0.666992 -6 3.33398 -8 8.00098l-14 53c0 1.33301 0.666992 2.66602 2 3.99902l4 4l344 140c5.33301 1.33301 8.66602 2 9.99902 2h55z" />
    <glyph glyph-name="two" unicode="2" 
d="M924 166c5.33301 0 7.99805 -2.66504 7.99805 -7.99805v-150c0 -5.33301 -2.66699 -8 -8 -8h-840c-1.33301 0 -2.33301 0.333008 -3 1l-3 3l-31 51c-1.33301 2 -2 4.33301 -2 7s1.33301 4.66699 4 6c194.667 167.333 353 335.666 475 504.999
c38 53.333 72.5 120.166 103.5 200.499s46.5 157.166 46.5 230.499c0 83.333 -21.667 153 -65 209c-46.667 61.333 -109.667 92 -189 92c-57.333 0 -110.666 -12.333 -159.999 -37c-6 -1.33301 -10 -7.66602 -12 -18.999l-33 -207c0 -4 -2.66699 -6 -8 -6h-84
c-5.33301 0 -8 2.66699 -8 8v273c0 5.33301 2.66699 10 8 14c38.667 23.333 95.667 43.333 171 60c56.667 12 118.334 18 185.001 18c118 0 213.667 -28.667 287 -86c82 -64 123 -148 123 -252c0 -80.667 -20.667 -169.667 -62 -267c-33.333 -77.333 -77 -152 -131 -224
c-87.333 -116 -219 -254 -395 -414h623z" />
    <glyph glyph-name="three" unicode="3" 
d="M303 768c0 4 2.66602 5.99609 7.99902 5.99609c104 0 187 27 249 81c64.667 56 97 129.333 97 220c0 74 -21 131.5 -63 172.5s-98.667 61.5 -170 61.5c-47.333 0 -109.333 -13.667 -186 -41c-6.66699 -2.66699 -11.667 -9 -15 -19l-28 -209
c0 -5.33301 -3.66699 -8 -11 -8h-73c-6 0 -9 2.66699 -9 8v295c0 4 3 7.66699 9 11c124.667 42 239.334 63 344.001 63c111.333 0 202.666 -22 273.999 -66c86 -54 129 -132.333 129 -235c0 -67.333 -22.333 -130.166 -67 -188.499s-103 -102.166 -175 -131.499
c103.333 -18.667 185.833 -62 247.5 -130s92.5 -147.333 92.5 -238c0 -140.667 -55.667 -252.334 -167 -335.001c-103.333 -76 -224.333 -114 -363 -114c-68.667 0 -154.667 11.333 -258 34c-27.333 6 -52.666 12.667 -75.999 20c-5.33301 2.66699 -8 5.33398 -8 8.00098
v311c0 5.33301 2.66699 8 8 8h82c5.33301 -1.33301 8 -3.33301 8 -6l41 -233c0 -6.66699 3.33301 -11 10 -13c47.333 -22.667 111.666 -34 192.999 -34c92.667 0 167.334 27.333 224.001 82c55.333 52.667 83 128.334 83 227.001s-31 174.834 -93 228.501
s-145.667 80.5 -251 80.5c-29.333 0 -55.333 -1.33301 -78 -4c-5.33301 0 -8 2.66699 -8 8v80z" />
    <glyph glyph-name="four" unicode="4" 
d="M612 365c0 8 -4 12 -12 12h-537c-2.66699 0 -4 0.333008 -4 1s-0.666992 1.66699 -2 3l-16 41c-1.33301 4 -1.33301 7.33301 0 10l670 963c2.66699 2.66699 4.66699 4 6 4l61 -8c5.33301 0 8 -3 8 -9v-845c0 -8.66699 4.33301 -13 13 -13h182c5.33301 0 8 -2.66699 8 -8
v-131c0 -5.33301 -2.66699 -8 -8 -8h-182c-8.66699 0 -13 -4 -13 -12v-267c0 -8 4.33301 -12 13 -12l135 -14c5.33301 0 8 -3 8 -9v-55c0 -5.33301 -2.66699 -8 -8 -8h-481c-6 0 -9 2.66699 -9 8v55c0 6 3 9 9 9l147 14c8 0 12 4 12 12v267zM217 524h383
c8 0 12 4.33301 12 13v571z" />
    <glyph glyph-name="five" unicode="5" 
d="M238 903c57.333 12.667 118.664 19.001 183.997 19.001c140.667 0 256.334 -40.333 347.001 -121s136 -187.334 136 -320.001c0 -146.667 -52.667 -268.334 -158 -365.001s-235.666 -145 -390.999 -145c-48 0 -102 8 -162 24s-107.667 39.667 -143 71
c-3.33301 3.33301 -5.66602 6.33301 -6.99902 9c-0.666992 2 -0.333984 3.66699 0.999023 5l41 59c1.33301 1.33301 3 2.33301 5 3c2.66699 0 5.66699 -1 9 -3c48 -31.333 109.667 -52.666 185 -63.999c21.333 -3.33301 42.333 -5 63 -5c102 0 186.5 32.833 253.5 98.5
s100.5 148.834 100.5 249.501c0 97.333 -32.167 176.166 -96.5 236.499s-148.166 90.5 -251.499 90.5c-63.333 0 -135 -10.667 -215 -32c-10.667 -2.66699 -16 0 -16 8v649c0 5.33301 3.33301 8 10 8h674c5.33301 0 8 -2.66699 8 -8v-158c0 -5.33301 -2.66699 -8 -8 -8h-559
c-10 0 -15 -4.66699 -15 -14v-291z" />
    <glyph glyph-name="six" unicode="6" 
d="M289 690c-16.667 -88.667 -24.999 -160.333 -24.999 -215c0 -56 9.66699 -114.333 29 -175c33.333 -104.667 87.333 -174.667 162 -210c27.333 -13.333 57.333 -20 90 -20c79.333 0 139.666 33.333 180.999 100c33.333 53.333 50 126.333 50 219
c0 108 -21.667 191 -65 249c-50 66 -126.667 99 -230 99c-26 0 -61 -4.33301 -105 -13c-31.333 -6 -60.333 -17.333 -87 -34zM305.001 795.001c84.667 44.667 167.333 67 248 67c130 0 234.5 -39.5 313.5 -118.5s118.5 -181.5 118.5 -307.5c0 -134 -41.667 -244 -125 -330
c-87.333 -90 -199.333 -135 -336 -135c-146.667 0 -262 53.333 -346 160c-78 98 -117 219 -117 363c0 248.667 81.333 465 244 649c139.333 158 323 248.667 551 272c8 0 12 -2.66699 12 -8l13 -66c0 -6 -5 -10 -15 -12c-138.667 -26 -250 -73 -334 -141
c-34.667 -28 -64.667 -60 -90 -96c-58 -84 -103.667 -183 -137 -297z" />
    <glyph glyph-name="seven" unicode="7" 
d="M924 1378c3.33301 -0.666992 6.00098 -2 8.00098 -4l29 -43c1.33301 -2.66699 2.66602 -4.33398 3.99902 -5.00098c0.666992 -1.33301 0 -3.66602 -2 -6.99902l-564 -1323c-4 -4 -6.66699 -6 -8 -6h-196c-6 0 -9 2.66699 -9 8c0 2 0.666992 4 2 6l623 1217h-602
c-9.33301 0 -14 -4.33301 -14 -13l-27 -147c0 -4 -4 -6 -12 -6h-76c-5.33301 0 -8 2 -8 6v309c0 5.33301 2.66699 8 8 8h844z" />
    <glyph glyph-name="eight" unicode="8" 
d="M512 74c107.333 0 179.333 49.334 216 148.001c11.333 30.667 17 64.667 17 102c0 108 -57.333 196.667 -172 266c-36.667 22 -76 43 -118 63c-59.333 -26.667 -106 -69.667 -140 -129c-32.667 -56.667 -49 -119.334 -49 -188.001c0 -118.667 46 -198.667 138 -240
c31.333 -14.667 67.333 -22 108 -22zM500 1311c-59.333 0 -105.666 -20.833 -138.999 -62.5s-50 -92.5 -50 -152.5c0 -74 20.333 -133.667 61 -179c33.333 -38 92.333 -78 177 -120h14c100 56.667 150 150.667 150 282c0 69.333 -18.833 125.333 -56.5 168
s-89.834 64 -156.501 64zM522 1409c106 0 194.333 -27.999 265 -83.999c73.333 -58.667 110 -135.667 110 -231c0 -148 -82.667 -265 -248 -351c109.333 -53.333 187.333 -108.333 234 -165c52 -64 78 -139.333 78 -226c0 -87.333 -28 -163 -84 -227
c-51.333 -58.667 -120 -101.334 -206 -128.001c-56.667 -17.333 -115.667 -26 -177 -26c-118.667 0 -218.667 31 -300 93c-87.333 65.333 -131 150.333 -131 255c0 89.333 26 165.333 78 228c50 60 122.333 112.667 217 158c-85.333 46 -149 95.667 -191 149
s-63 120.333 -63 201c0 110.667 41 198.667 123 264c74.667 60 173 90 295 90z" />
    <glyph glyph-name="nine" unicode="9" 
d="M733 690l15.999 113.999c4.66699 37.333 7 75.333 7 114c0 66.667 -12.333 131.334 -37 194.001c-27.333 68.667 -65.333 122 -114 160c-33.333 26 -73.333 39 -120 39c-76 0 -133.667 -33.667 -173 -101c-33.333 -56 -50 -129 -50 -219
c0 -106.667 21.667 -189.667 65 -249c48 -66 121.333 -99 220 -99c54.667 0 104.334 9.33301 149.001 28c14 6 26.333 12.333 37 19zM583.999 288.999c18.667 26.667 41.667 67.9971 69 123.997c23.333 46.667 44.666 103.667 63.999 171c-75.333 -44 -155.333 -66 -240 -66
c-127.333 0 -229.833 39.5 -307.5 118.5s-116.5 181.5 -116.5 307.5c0 95.333 23.333 181.5 70 258.5s112.334 133.833 197.001 170.5c55.333 24 117.333 36 186 36c143.333 0 256.333 -52.667 339 -158c75.333 -97.333 113 -218.666 113 -363.999
c0 -245.333 -79 -461.666 -237 -648.999c-131.333 -155.333 -311.666 -245.666 -540.999 -270.999c-8 0 -12 2.66699 -12 8l-10 66c0 3.33301 4.66699 7.33301 14 12c140 30 248 77 324 141c35.333 29.333 64.666 61 87.999 95z" />
    <glyph glyph-name="colon" unicode=":" horiz-adv-x="512" 
d="M255 889c52.667 0 88.999 -23.999 108.999 -71.999c6 -14.667 9 -30.334 9 -47.001c0 -32 -11.667 -59 -35 -81c-25.333 -24 -53 -36 -83 -36c-32 0 -59.5 11.5 -82.5 34.5s-34.5 50.5 -34.5 82.5c0 33.333 11.333 61.5 34 84.5s50.334 34.5 83.001 34.5z
M254.999 207.001c52.667 0 88.999 -23.999 108.999 -71.999c6 -14.667 9 -30.334 9 -47.001c0 -32 -11.667 -59 -35 -81c-25.333 -24 -53 -36 -83 -36c-32 0 -59.5 11.5 -82.5 34.5s-34.5 50.5 -34.5 82.5c0 33.333 11.333 61.5 34 84.5s50.334 34.5 83.001 34.5z" />
    <glyph glyph-name="semicolon" unicode=";" horiz-adv-x="512" 
d="M135 -207c-1.33301 2 -2 3.33398 -2 4.00098c0.666992 2.66699 2 4.66699 4 6c96 45.333 144 102 144 170c0 75.333 -39 113 -117 113c-19.333 19.333 -29 41.333 -29 66c0 60 32.333 90 97 90c44.667 0 83.667 -16.333 117 -49c38 -38.667 57 -88.667 57 -150
c0 -128.667 -80.667 -227 -242 -295c-4 -2.66699 -7.33301 -1.33398 -10 3.99902zM271 889.001c52.667 0 88.999 -23.999 108.999 -71.999c6 -14.667 9 -30.334 9 -47.001c0 -32 -11.667 -59 -35 -81c-25.333 -24 -53 -36 -83 -36c-32 0 -59.5 11.5 -82.5 34.5
s-34.5 50.5 -34.5 82.5c0 33.333 11.333 61.5 34 84.5s50.334 34.5 83.001 34.5z" />
    <glyph glyph-name="semicolon" unicode="&#x37e;" horiz-adv-x="512" 
d="M135 -207c-1.33301 2 -2 3.33398 -2 4.00098c0.666992 2.66699 2 4.66699 4 6c96 45.333 144 102 144 170c0 75.333 -39 113 -117 113c-19.333 19.333 -29 41.333 -29 66c0 60 32.333 90 97 90c44.667 0 83.667 -16.333 117 -49c38 -38.667 57 -88.667 57 -150
c0 -128.667 -80.667 -227 -242 -295c-4 -2.66699 -7.33301 -1.33398 -10 3.99902zM271 889.001c52.667 0 88.999 -23.999 108.999 -71.999c6 -14.667 9 -30.334 9 -47.001c0 -32 -11.667 -59 -35 -81c-25.333 -24 -53 -36 -83 -36c-32 0 -59.5 11.5 -82.5 34.5
s-34.5 50.5 -34.5 82.5c0 33.333 11.333 61.5 34 84.5s50.334 34.5 83.001 34.5z" />
    <glyph glyph-name="less" unicode="&#x3c;" 
d="M219 471l641 -335.999c4 -2.66699 6 -5.33398 6 -8.00098v-82c0 -4 -1.66699 -6.66699 -5 -8s-6.33301 -1.33301 -9 0l-739 393c-4.66699 1.33301 -7 4 -7 8v66c0 2.66699 2.33301 5.33398 7 8.00098l739 393c2.66699 1.33301 5.66699 1.33301 9 0s5 -4 5 -8v-82
c0 -2.66699 -2 -5.33398 -6 -8.00098z" />
    <glyph glyph-name="equal" unicode="=" 
d="M72 365h880c7.33301 0 11 -3.66699 11 -11v-73c0 -7.33301 -3.66699 -11 -11 -11h-880c-7.33301 0 -11 3.66699 -11 11v73c0 7.33301 3.66699 11 11 11zM72 682h880c7.33301 0 11 -3.33301 11 -10v-74c0 -6.66699 -3.66699 -10 -11 -10h-880
c-7.33301 0 -11 3.33301 -11 10v74c0 6.66699 3.66699 10 11 10z" />
    <glyph glyph-name="greater" unicode="&#x3e;" 
d="M805 471l-641 335.999c-4 2.66699 -6 5.33398 -6 8.00098v82c0 4 1.66699 6.66699 5 8s6.33301 1.33301 9 0l739 -393c4.66699 -2.66699 7 -5.33398 7 -8.00098v-66c0 -4 -2.33301 -6.66699 -7 -8l-739 -393c-2.66699 -1.33301 -5.66699 -1.33301 -9 0s-5 4 -5 8v82
c0 2.66699 2 5.33398 6 8.00098z" />
    <glyph glyph-name="question" unicode="?" horiz-adv-x="801" 
d="M324 195c29.333 0 55.499 -11.501 78.499 -34.501s34.5 -49.167 34.5 -78.5s-11.5 -55.166 -34.5 -77.499s-49.167 -33.5 -78.5 -33.5c-45.333 0 -79 23 -101 69c-6.66699 12.667 -10 26.667 -10 42c0 28.667 11.333 54.667 34 78s48.334 35 77.001 35zM296.999 331.999
c-10.667 0 -15.999 4.00391 -15.999 12.0039c-2.66699 18.667 -4 37 -4 55c0 77.333 8.66699 143 26 197c23.333 76.667 64.666 154.667 123.999 234c43.333 58.667 74.666 111.667 93.999 159c10.667 27.333 16 54.666 16 81.999c0 80 -20.333 141.333 -61 184
c-39.333 40 -91.333 60 -156 60c-39.333 0 -77.666 -9 -114.999 -27c-5.33301 -2.66699 -8.66602 -8 -9.99902 -16l-29 -152c0 -5.33301 -3.33301 -8 -10 -8h-63c-7.33301 0 -11 2.66699 -11 8v228c0 5.33301 3.66699 8.66602 11 9.99902
c76.667 27.333 143.667 43.333 201 48c22.667 2 47.667 3 75 3c103.333 0 186.666 -24 249.999 -72c72.667 -54.667 109 -131.667 109 -231c0 -54 -16 -108.667 -48 -164c-22 -36.667 -59 -83.334 -111 -140.001c-56 -62 -94 -108 -114 -138
c-60 -90.667 -90 -197.334 -90 -320.001c0 -8 -5.33301 -12 -16 -12h-52z" />
    <glyph glyph-name="at" unicode="@" horiz-adv-x="1731" 
d="M1061 774c-20 44 -55.001 65.999 -105.001 65.999c-64 0 -122.333 -27.667 -175 -83c-45.333 -48 -81.666 -114.667 -108.999 -200c-26 -79.333 -39 -157 -39 -233c0 -63.333 8.66699 -113.666 26 -150.999c24 -52.667 57 -79 99 -79c22 0 45.667 8.33301 71 25
c42.667 27.333 98.667 72.333 168 135zM1167 912.999c1.33301 0 2.33496 0.333008 3.00195 1s2 1 4 1l43 -10c4 -1.33301 6 -2.66602 6 -3.99902v-6l-74 -657c-2.66699 -24 -2.66699 -46.667 0 -68c4.66699 -38.667 20 -66.334 46 -83.001c11.333 -7.33301 24 -11 38 -11
c14.667 0 30.667 3.66699 48 11c20.667 8.66699 36.667 18.667 48 30c25.333 16 50.333 41.333 75 76c45.333 62.667 76.666 141 93.999 235c8.66699 46.667 13 94.334 13 143.001c0 188 -55.333 338 -166 450c-106.667 107.333 -247.667 161 -423 161
c-148 0 -276 -41.667 -384 -125c-94.667 -73.333 -167.667 -172.333 -219 -297c-47.333 -114 -71 -233 -71 -357c0 -228.667 65.667 -405.334 197 -530.001c119.333 -114 273.333 -172 462 -174c106.667 -1.33301 203.334 13 290.001 43c34.667 12 67.667 29 99 51
c2 1.33301 4.66699 1.66602 8 0.999023s5.66602 -1.66699 6.99902 -3l26 -41c1.33301 -4 1.66602 -7.33301 0.999023 -10s-1.66699 -4.66699 -3 -6c-51.333 -46.667 -128.333 -81.667 -231 -105c-86 -18.667 -165.333 -28 -238 -28c-184.667 0 -343.667 46 -477 138
c-138.667 95.333 -231 229 -277 401c-20 72 -30 151.667 -30 239c0 168.667 39.333 322 118 460c75.333 132.667 178.5 238 309.5 316s271.833 117 422.5 117c130.667 0 247.334 -24.333 350.001 -73c172.667 -82 285.667 -214.667 339 -398c18.667 -64 28 -135.667 28 -215
c0 -164.667 -49 -308 -147 -430c-63.333 -79.333 -134.333 -133.666 -213 -162.999c-41.333 -14.667 -84 -22 -128 -22c-43.333 0 -78.333 13.667 -105 41c-32.667 32 -53.667 77 -63 135c-72.667 -72.667 -135 -122 -187 -148c-37.333 -18.667 -72 -28 -104 -28
c-58 0 -108.333 20.333 -151 61c-38.667 36.667 -65.334 84.334 -80.001 143.001c-9.33301 37.333 -14 74.666 -14 111.999c0 100.667 22.333 199.667 67 297c46 101.333 108 182 186 242c82 64 164.667 96 248 96c40.667 0 86.667 -12.333 138 -37z" />
    <glyph glyph-name="A" unicode="A" horiz-adv-x="1454" 
d="M698 1102c-2.66699 4 -5.33398 6 -8.00098 6c-4 0 -6.66699 -2 -8 -6l-193 -490c-4 -9.33301 -1 -14 9 -14h370c10.667 0 14.334 4.66699 11.001 14zM897 0c-6.66699 0 -10 3.33496 -10 10.002v53c0 7.33301 3.33301 11 10 11l160 16c4 0 6.66699 1.33301 8 4
s1.33301 6 0 10l-152 402c-2.66699 4 -5.33398 6 -8.00098 6h-446c-3.33301 -0.666992 -6 -2.66699 -8 -6l-162 -406c-3.33301 -8.66699 0 -13.334 10 -14.001l154 -12c6.66699 -0.666992 10 -4.33398 10 -11.001v-53c0 -6.66699 -3.33301 -10 -10 -10h-443
c-6.66699 -0 -10 3.33301 -10 10v53c0 7.33301 3.33301 11 10 11l168 16c3.33301 0.666992 6 2.66699 8 6l521 1311c2.66699 4 5.33398 6 8.00098 6h51c3.33301 -0.666992 6 -2.66699 8 -6l479 -1309c1.33301 -4 4.33301 -6 9 -6l163 -18c6 0 9 -3.66699 9 -11v-53
c0 -6.66699 -3.66699 -10 -11 -10h-526z" />
    <glyph glyph-name="B" unicode="B" horiz-adv-x="1233" 
d="M449 786c0 -6.66699 3.33301 -10 10 -10h63c111.333 0 195.333 17 252 51c75.333 45.333 113 116.333 113 213c0 80 -27 140.333 -81 181c-50 37.333 -113.667 57.333 -191 60l-78 3h-78c-6.66699 0 -10 -3.33301 -10 -10v-488zM449 104c0 -6.66699 3.33301 -10 10 -10
h129c245.333 0 368 92.333 368 277c0 218 -135.667 327 -407 327h-90c-6.66699 0 -10 -3.33301 -10 -10v-584zM563 1378c168.667 0 288.333 -19 359 -57c48.667 -26 84.667 -57.667 108 -95c28.667 -46.667 43 -101 43 -163c0 -144 -83.333 -245.667 -250 -305
c95.333 -20.667 174 -62.667 236 -126c68 -68.667 102 -149.667 102 -243c0 -75.333 -21.667 -145 -65 -209c-81.333 -120 -243.333 -180 -486 -180h-524c-6.66699 -0 -10 3.33301 -10 10v53c0 7.33301 3.33301 11 10 11l174 16c6.66699 0 10 3.33301 10 10v1178
c0 6.66699 -3.33301 10 -10 10l-174 17c-6.66699 0 -10 3.33301 -10 10v53c0 6.66699 3.33301 10 10 10h477z" />
    <glyph glyph-name="C" unicode="C" horiz-adv-x="1325" 
d="M858 1409c24.667 0 52.665 -1.66895 83.998 -5.00195s63 -7.5 95 -12.5s63.5 -10.5 94.5 -16.5s57.833 -11 80.5 -15c7.33301 -1.33301 11 -4.66602 11 -9.99902v-310c0 -6.66699 -3.66699 -10 -11 -10h-79c-3.33301 0 -6 0.666992 -8 2s-3 3.33301 -3 6l-41 230
c0 4 -2.66699 7.33301 -8 10c-12 2.66699 -27.333 6.33398 -46 11.001s-37.834 9.16699 -57.501 13.5s-40 7.83301 -61 10.5s-41.167 4 -60.5 4c-91.333 0 -172.5 -14 -243.5 -42s-130.833 -67.667 -179.5 -119s-85.667 -112.833 -111 -184.5s-38 -150.5 -38 -236.5
c0 -90 13.333 -175.333 40 -256s64.667 -151.667 114 -213s108.833 -109.666 178.5 -144.999s146.834 -53 231.501 -53c14.667 0 32.667 0.666992 54 2s42.5 3.33301 63.5 6s41.833 6 62.5 10s38.334 10 53.001 18c5.33301 3.33301 8 7 8 11l41 231c0 1.33301 1 3 3 5
s4.66699 3 8 3h79c7.33301 0 11 -3.33301 11 -10v-309c0 -4 -3.66699 -7.33301 -11 -10c-22.667 -6 -47.667 -12 -75 -18s-57.166 -11.667 -89.499 -17s-67.166 -9.83301 -104.499 -13.5s-78.666 -5.5 -123.999 -5.5c-74.667 0 -144.834 8.16699 -210.501 24.5
s-126.167 40 -181.5 71s-104.5 68 -147.5 111s-79.167 90.667 -108.5 143s-52.166 109.666 -68.499 171.999s-24.5 126.833 -24.5 193.5c0 76.667 9.5 147.667 28.5 213s46 125 81 179s76.333 101.5 124 142.5s100.167 75.5 157.5 103.5s119.166 49.167 185.499 63.5
s134.166 21.5 203.499 21.5z" />
    <glyph glyph-name="D" unicode="D" horiz-adv-x="1483" 
d="M449 104c0 -6.66699 3.33301 -10 10 -10h145c206 0 355.667 36.333 449 109c104.667 82.667 157 224 157 424c0 438 -191 657 -573 657h-178c-6.66699 0 -10 -3.33301 -10 -10v-1170zM270 1270c0 6.66699 -3.33301 10.001 -10 10.001l-174 16
c-6.66699 0 -10 3.66699 -10 11v61c0 6.66699 3.33301 10 10 10h551c236 0 420 -53.667 552 -161c144 -116.667 216 -290.334 216 -521.001c0 -464 -266.333 -696 -799 -696h-520c-6.66699 -0 -10 3.33301 -10 10v62c0 6.66699 3.33301 10 10 10l174 16
c6.66699 0 10 3.66699 10 11v1161z" />
    <glyph glyph-name="E" unicode="E" horiz-adv-x="1196" 
d="M1065 1378c6.66699 0 10 -3.33301 10 -10v-321c0 -7.33301 -3.33301 -11 -10 -11h-76c-6.66699 0 -10 2.66699 -10 8l-41 232c0 5.33301 -3.33301 8 -10 8h-469c-6.66699 0 -10 -3.33301 -10 -10v-506c0 -6.66699 3.33301 -10 10 -10h282c7.33301 0 11 2.66699 11 8
l20 166c0 5.33301 3.33301 8 10 8h56c6.66699 0 10 -3.33301 10 -10v-445c0 -6.66699 -3.33301 -10 -10 -10h-56c-6.66699 0 -10 2.66699 -10 8l-20 176c0 6 -3.66699 9 -11 9h-282c-6.66699 0 -10 -3.66699 -10 -11v-553c0 -6.66699 3.33301 -10 10 -10h497
c7.33301 0 11 2.66699 11 8l41 228c0 5.33301 3.33301 8 10 8h76c6.66699 0 10 -3.33301 10 -10v-318c0 -6.66699 -3.33301 -10 -10 -10h-1008c-6.66699 -0 -10 3.33301 -10 10v53c0 7.33301 3.33301 11 10 11l174 16c6.66699 0 10 3.33301 10 10v1182
c-2.66699 4 -6 6 -10 6l-174 17c-6.66699 0 -10 3.33301 -10 10v53c0 6.66699 3.33301 10 10 10h979z" />
    <glyph glyph-name="F" unicode="F" horiz-adv-x="1096" 
d="M1044 1378c7.33301 0 11 -3.33301 11 -10v-321c0 -7.33301 -3.66699 -11 -11 -11h-75c-7.33301 0 -11 2.66699 -11 8l-40 232c0 5.33301 -3.66699 8 -11 8h-448c-6.66699 0 -10 -3.33301 -10 -10v-537c0 -5.33301 3.33301 -8 10 -8h270c6.66699 0 10 2.66699 10 8l21 166
c0 5.33301 3.33301 8 10 8h55c7.33301 0 11 -3.33301 11 -10v-436c0 -6.66699 -3.66699 -10 -11 -10h-55c-6.66699 0 -10 2.66699 -10 8l-21 168c0 5.33301 -3.33301 8 -10 8h-270c-6.66699 0 -10 -2.66699 -10 -8v-531c0 -6.66699 3.33301 -10 10 -10l174 -16
c6.66699 0 10 -3.66699 10 -11v-53c0 -6.66699 -3.33301 -10 -10 -10h-547c-6.66699 -0 -10 3.33301 -10 10v53c0 7.33301 3.33301 11 10 11l174 16c6.66699 0 10 3.33301 10 10v1182c-1.33301 4 -3.33301 6 -6 6h-4l-174 17c-6.66699 0 -10 3.33301 -10 10v53
c0 6.66699 2.66699 10 8 10h960z" />
    <glyph glyph-name="G" unicode="G" horiz-adv-x="1450" 
d="M868 1409c71.333 0 163.665 -11.334 276.998 -34.001c16.667 -3.33301 43.334 -8.33301 80.001 -15c6.66699 -1.33301 10 -4.66602 10 -9.99902v-310c0 -6.66699 -3.33301 -10 -10 -10h-80c-6.66699 0 -10 2.66699 -10 8l-41 230c0 4 -3 7.33301 -9 10
c-117.333 26 -194.333 39 -231 39c-179.333 0 -320.5 -52.167 -423.5 -156.5s-154.5 -246.166 -154.5 -425.499c0 -181.333 49.667 -336 149 -464c108 -138.667 250.333 -208 427 -208c50 0 118.333 9 205 27v414c0 6.66699 -3.33301 10 -10 10l-175 16
c-6.66699 0 -10 4.33301 -10 13v49c0 8 4 12 12 12h523c8 0 12 -4 12 -12v-49c0 -8.66699 -3.33301 -13 -10 -13l-154 -16c-5.33301 0 -8.66602 -2 -9.99902 -6v-477c0 -4 -3.33301 -7.66699 -10 -11c-142.667 -32.667 -276 -49 -400 -49c-214.667 0 -392 65.333 -532 196
c-143.333 133.333 -215 306.333 -215 519c0 143.333 35.667 271.166 107 383.499s172 198.5 302 258.5c117.333 54 244.333 81 381 81z" />
    <glyph glyph-name="H" unicode="H" horiz-adv-x="1561" 
d="M76 1368c0 6.66699 3.33301 10 10 10h537c6.66699 0 10 -3.33301 10 -10v-53c0 -6.66699 -3.33301 -10 -10 -10l-164 -17c-6.66699 0 -10 -3.33301 -10 -10v-496c0 -4 1 -6 3 -6h658c1.33301 1.33301 2 3.33301 2 6v496c0 6.66699 -3.33301 10 -10 10l-164 17
c-6.66699 0 -10 3.33301 -10 10v53c0 6.66699 3.33301 10 10 10h537c6.66699 0 10 -3.33301 10 -10v-53c0 -6.66699 -3.33301 -10 -10 -10l-175 -17c-6.66699 0 -10 -3.33301 -10 -10v-1178c0 -6.66699 3.33301 -10 10 -10l175 -16c6.66699 0 10 -3.66699 10 -11v-53
c0 -6.66699 -3.33301 -10 -10 -10h-537c-6.66699 -0 -10 3.33301 -10 10v53c0 7.33301 3.33301 11 10 11l164 16c6.66699 0 10 3.33301 10 10v572c0 6.66699 -3.33301 10 -10 10h-643c-6.66699 0 -10 -3.33301 -10 -10v-572c0 -6.66699 3.33301 -10 10 -10l164 -16
c6.66699 0 10 -3.66699 10 -11v-53c0 -6.66699 -3.33301 -10 -10 -10h-537c-6.66699 -0 -10 3.33301 -10 10v53c0 7.33301 3.33301 11 10 11l174 16c6.66699 0 10 3.33301 10 10v1178c0 6.66699 -3.33301 10 -10 10l-174 17c-6.66699 0 -10 3.33301 -10 10v53z" />
    <glyph glyph-name="I" unicode="I" horiz-adv-x="723" 
d="M637 1378c6.66699 0 10 -3.33301 10 -10v-53c0 -6.66699 -3.33301 -10 -10 -10l-174 -17c-6.66699 0 -10 -3.33301 -10 -10v-1178c0 -6.66699 3.33301 -10 10 -10l174 -16c6.66699 0 10 -3.66699 10 -11v-53c0 -6.66699 -3.33301 -10 -10 -10h-551
c-6.66699 -0 -10 3.33301 -10 10v53c0 7.33301 3.33301 11 10 11l174 16c6.66699 0 10 3.33301 10 10v1178c0 6.66699 -3.33301 10 -10 10l-174 17c-6.66699 0 -10 3.33301 -10 10v53c0 6.66699 3.33301 10 10 10h551z" />
    <glyph glyph-name="J" unicode="J" horiz-adv-x="662" 
d="M616 1378c0.666992 1.33301 1.33301 2.00098 2 2.00098c6 0 9 -4 9 -12v-53c0 -6.66699 -3.66699 -10 -11 -10l-174 -17c-6.66699 0 -10 -3.33301 -10 -10v-1051c0 -144 -19.667 -258.667 -59 -344c-53.333 -115.333 -158.666 -203.333 -315.999 -264
c-4.66699 0 -8 2.66699 -10 8l-24 41l-3 6c-2.66699 6 -1.66699 10.333 3 13c68 42.667 115.333 80 142 112c49.333 59.333 78.666 148.666 87.999 267.999c3.33301 42.667 5 92.667 5 150v1061c0 6.66699 -3.33301 10 -10 10l-174 17c-7.33301 0 -11 3.33301 -11 10v53
c0 6.66699 3.66699 10 11 10h542z" />
    <glyph glyph-name="K" unicode="K" horiz-adv-x="1366" 
d="M86 1368c0 6.66699 3.33301 10.001 10 10.001h498c6.66699 0 10 -3.33301 10 -10v-55c0 -5.33301 -2.66699 -8 -8 -8l-139 -17c-5.33301 0 -8 -3.33301 -8 -10v-555l495 557c2.66699 2.66699 3.33398 6 2.00098 10s-4 6 -8 6l-84 9c-6.66699 0 -10 3.33301 -10 10v53
c0 6.66699 3.33301 10 10 10h414c6.66699 0 10 -3.33301 10 -10v-53c0 -6.66699 -3.33301 -10 -10 -10l-191 -19c-2.66699 0 -4.66699 -0.666992 -6 -2l-422 -475c-2 -1.33301 -3.33301 -3.33301 -4 -6l2 -6l516 -701c2.66699 -2.66699 4.66699 -4 6 -4l187 -18
c6.66699 0 10 -3.66699 10 -11v-53c0 -6.66699 -3.33301 -10 -10 -10h-512c-6.66699 0 -10 3.33301 -10 10v53c0 7.33301 3.33301 11 10 11l90 8c4 0 6.66699 1.66699 8 5s1.33301 7 0 11l-416 559c-2.66699 3.33301 -5.33398 5 -8.00098 5
c-2.66699 -0.666992 -4.66699 -2.33398 -6 -5.00098l-61 -69c-1.33301 -2 -2 -4 -2 -6v-484c0 -6.66699 2.66699 -10 8 -10l133 -14c5.33301 0 8 -2.66699 8 -8v-56c0 -6.66699 -3.33301 -10 -10 -10h-492c-6.66699 -0 -10 3.33301 -10 10v53c0 7.33301 3.33301 11 10 11
l164 16c6.66699 0 10 3.33301 10 10v1178c0 6.66699 -3.33301 10 -10 10l-164 17c-6.66699 0 -10 3.33301 -10 10v53z" />
    <glyph glyph-name="L" unicode="L" horiz-adv-x="1130" 
d="M78 1368c0 6.66699 3.33301 10 10 10h555c6.66699 0 10 -3.33301 10 -10v-53c0 -6.66699 -3.33301 -10 -10 -10l-184 -17c-6.66699 0 -10 -3.33301 -10 -10v-1174c0 -6.66699 3.33301 -10 10 -10h475c6.66699 0 10 2.66699 10 8l41 228c0 5.33301 3.33301 8 10 8h76
c6.66699 0 10 -3.33301 10 -10v-318c0 -6.66699 -3.33301 -10 -10 -10h-983c-6.66699 -0 -10 3.33301 -10 10v53c0 7.33301 3.33301 11 10 11l172 16c6.66699 0 10 3.33301 10 10v1178c0 6.66699 -3.33301 10 -10 10l-172 17c-6.66699 0 -10 3.33301 -10 10v53z" />
    <glyph glyph-name="M" unicode="M" horiz-adv-x="1849" 
d="M481 1378c3.33301 -0.666992 5.99805 -2.66797 7.99805 -6.00098l437 -1077l438 1077c1.33301 4 4 6 8 6h408c6.66699 0 10 -3.33301 10 -10v-53c0 -6.66699 -3.33301 -10 -10 -10l-174 -17c-7.33301 0 -11 -3.33301 -11 -10v-1178c0 -6 3.66699 -9.33301 11 -10l184 -16
c6.66699 -0.666992 10 -4.33398 10 -11.001v-53c0 -6.66699 -3.33301 -10 -10 -10h-576c-6.66699 0 -10 3.33301 -10 10v53c0 6.66699 3.33301 10.334 10 11.001l193 16c6.66699 0.666992 10 4 10 10v1137h-8l-506 -1251c-1.33301 -2.66699 -4.66602 -4 -9.99902 -4h-21
c-5.33301 0 -8.66602 1.33301 -9.99902 4l-506 1237h-8v-1123c0 -6.66699 3.33301 -10 10 -10l170 -16c7.33301 0 11 -3.66699 11 -11v-53c0 -6.66699 -3.66699 -10 -11 -10h-469c-6.66699 0 -10 3.33301 -10 10v53c0 6.66699 3.33301 10.334 10 11.001l183 16
c6.66699 0.666992 10 4 10 10v1178c0 6.66699 -3.33301 10 -10 10l-174 17c-7.33301 0 -11 3.33301 -11 10v53c0 6.66699 3.66699 10 11 10h413z" />
    <glyph glyph-name="N" unicode="N" horiz-adv-x="1487" 
d="M41 1368c0 6.66699 3.33203 10 9.99902 10h361c3.33301 -0.666992 6 -2 8 -4l760 -1005v901c0 6.66699 -3 10 -9 10l-151 16c-6.66699 0 -10 3.66699 -10 11v61c0 6.66699 3.33301 10 10 10h426c6.66699 0 10 -3.33301 10 -10v-61c0 -7.33301 -3.33301 -11 -10 -11
l-154 -16c-6.66699 0 -10 -3.33301 -10 -10v-1276c0 -6.66699 -4 -10 -12 -10h-39c-3.33301 0.666992 -6.66602 2.66699 -9.99902 6l-883 1169v-1050c0 -7.33301 2.66699 -11 8 -11l150 -16c6.66699 0 10 -3.33301 10 -10v-62c0 -6.66699 -3.33301 -10 -10 -10h-426
c-7.33301 -0 -11 3.33301 -11 10v62c0 6.66699 3.66699 10 11 10l155 16c7.33301 0 11 3.66699 11 11v1161c0 6.66699 -3.66699 10 -11 10l-174 16c-6.66699 0 -10 3.66699 -10 11v61z" />
    <glyph glyph-name="O" unicode="O" horiz-adv-x="1548" 
d="M782 1409c206.667 0 373.667 -68 501 -204c124.667 -132.667 187 -303 187 -511c0 -206.667 -62.667 -377.667 -188 -513c-128.667 -140 -295.334 -210 -500.001 -210c-205.333 0 -374 67.667 -506 203s-198 306 -198 512c0 208 65 380 195 516
c132.667 138 302.334 207 509.001 207zM758 1317c-153.333 0 -274.332 -60.332 -362.999 -180.999c-79.333 -108.667 -119 -242.334 -119 -401.001c0 -114 19.333 -219.667 58 -317c43.333 -108 106.666 -194.167 189.999 -258.5s178.333 -96.5 285 -96.5
c154 0 272.667 62 356 186c71.333 107.333 107 242 107 404c0 181.333 -45 335 -135 461c-96.667 135.333 -223 203 -379 203z" />
    <glyph glyph-name="P" unicode="P" horiz-adv-x="1208" 
d="M463 1284c-6.66699 0 -10.001 -3.33398 -10.001 -10.001v-582c0 -6.66699 3.33301 -10 10 -10h119c241.333 0 362 105.667 362 317c0 102.667 -37.667 177.334 -113 224.001c-65.333 40.667 -154.666 61 -267.999 61h-100zM597.999 1378
c130.667 0 229.333 -11.3311 296 -33.998c168.667 -57.333 253 -176.333 253 -357c0 -120.667 -54 -219.334 -162 -296.001c-96 -67.333 -207.333 -102.333 -334 -105l-198 35v-521c0 -6 3.33301 -9.33301 10 -10l194 -16c7.33301 -0.666992 11 -4.33398 11 -11.001v-53
c0 -6.66699 -3.66699 -10 -11 -10h-571c-6.66699 0 -10 3.33301 -10 10v53c0 7.33301 3.33301 11 10 11l174 16c6.66699 0 10 3.33301 10 10v1178c0 6.66699 -3.33301 10 -10 10l-174 17c-6.66699 0 -10 3.33301 -10 10v53c0 6.66699 3.33301 10 10 10h512z" />
    <glyph glyph-name="Q" unicode="Q" horiz-adv-x="1548" 
d="M782 1409c206.667 0 373.666 -68 500.999 -204c124.667 -132.667 187 -303 187 -511c0 -234.667 -79 -421 -237 -559c-51.333 -44.667 -108 -80.667 -170 -108c-4 -1.33301 -6 -3.66602 -6 -6.99902c0 -4 0.666992 -6.66699 2 -8c84 -60 179.333 -113.333 286 -160
c126.667 -55.333 231.334 -83 314.001 -83c49.333 0 110.666 6.66699 183.999 20c5.33301 0 8 -2 8 -6l25 -64c1.33301 -2.66699 1.33301 -4.66699 0 -6l-6 -4l-262 -127c-59.333 5.33301 -132 27.666 -218 66.999c-132 60 -258.333 137.667 -379 233
c-40.667 32 -76 63 -106 93c-2.66699 3.33301 -5 5 -7 5h-9c-30 -6 -65.667 -9 -107 -9c-205.333 0 -374 67.667 -506 203s-198 306 -198 512c0 208 65 380 195 516c132.667 138 302.334 207 509.001 207zM757.999 1317c-153.333 0 -274.332 -60.332 -362.999 -180.999
c-79.333 -108.667 -119 -242.334 -119 -401.001c0 -114 19.333 -219.667 58 -317c43.333 -108 106.666 -194.167 189.999 -258.5s178.333 -96.5 285 -96.5c154 0 272.667 62 356 186c71.333 107.333 107 242 107 404c0 181.333 -45 335 -135 461
c-96.667 135.333 -223 203 -379 203z" />
    <glyph glyph-name="R" unicode="R" horiz-adv-x="1337" 
d="M453 737c0 -6.66699 2.66699 -10 8 -10c94.667 0 161 1.66699 199 5c97.333 8.66699 168.333 47 213 115c25.333 38.667 38 86 38 142c0 196.667 -125.333 295 -376 295h-72c-6.66699 0 -10 -3.33301 -10 -10v-537zM569 1378c185.333 0 318.667 -28.666 400 -85.999
c95.333 -67.333 143 -158.666 143 -273.999c0 -132.667 -65 -233.334 -195 -302.001c-40 -21.333 -83 -38 -129 -50c70.667 -34 137 -110.667 199 -230l176 -338c2.66699 -5.33301 7.66699 -8 15 -8l149 -16c6.66699 0 10 -3.66699 10 -11v-53
c0 -6.66699 -3.33301 -10 -10 -10h-321c-7.33301 0 -12.333 2.66699 -15 8l-176 369c-84.667 177.333 -194 266 -328 266h-24c-6.66699 0 -10 -2.66699 -10 -8v-535c0 -6 3.33301 -9.33301 10 -10l194 -16c7.33301 -0.666992 11 -4.33398 11 -11.001v-53
c0 -6.66699 -3.66699 -10 -11 -10h-571c-6.66699 -0 -10 3.33301 -10 10v53c0 7.33301 3.33301 11 10 11l174 16c6.66699 0 10 3.33301 10 10v1178c0 6.66699 -3.33301 10 -10 10l-174 17c-6.66699 0 -10 3.33301 -10 10v53c0 6.66699 3.33301 10 10 10h483z" />
    <glyph glyph-name="S" unicode="S" horiz-adv-x="985" 
d="M762 1030c-6.66699 0 -9.99707 2.66504 -9.99707 7.99805l-41 230c0 4 -3 7.33301 -9 10c-58.667 26 -122 39 -190 39c-70.667 0 -130.667 -18.667 -180 -56c-54.667 -41.333 -82 -96.333 -82 -165c0 -66 24.333 -122 73 -168c32.667 -30.667 86 -63 160 -97l133 -61
c104 -48 179.667 -96.667 227 -146c59.333 -62 89 -139 89 -231c0 -137.333 -52.667 -244 -158 -320c-94 -68 -212 -102 -354 -102c-72.667 0 -156.334 10.667 -251.001 32c-26.667 6 -51 13.333 -73 22c-6.66699 2.66699 -10 6 -10 10v309c0 6.66699 3.33301 10 10 10h84
c6.66699 -2 10 -4.66699 10 -8l41 -231c0.666992 -2 2 -3.66699 4 -5l5 -6c48 -24 114.667 -36 200 -36c84 0 154.333 19.667 211 59c64.667 44.667 97 107.334 97 188.001c0 112 -74.667 203 -224 273l-135 63c-98.667 46 -172 93 -220 141c-63.333 63.333 -95 138 -95 224
s26.333 162.333 79 229c51.333 64.667 118.666 110.667 201.999 138c53.333 17.333 109.666 26 168.999 26c79.333 0 160.666 -9.66699 243.999 -29c22.667 -5.33301 47.334 -12 74.001 -20c6.66699 -1.33301 10 -4.66602 10 -9.99902v-310c0 -6.66699 -3.33301 -10 -10 -10
h-80z" />
    <glyph glyph-name="T" unicode="T" horiz-adv-x="1235" 
d="M1184 1378c6.66699 0 10 -3.33301 10 -10v-321c0 -7.33301 -3.33301 -11 -10 -11h-76c-6.66699 0 -10 2.66699 -10 8l-41 232c0 5.33301 -3.33301 8 -10 8h-332c-5.33301 0 -8 -3.33301 -8 -10v-1174c0 -6 3.33301 -9.33301 10 -10l194 -16
c7.33301 -0.666992 11 -4.33398 11 -11.001v-53c0 -6.66699 -3.66699 -10 -11 -10h-587c-7.33301 0 -11 3.33301 -11 10v53c0 6.66699 3.66699 10.334 11 11.001l194 16c6.66699 0.666992 10 4 10 10v1174c0 6.66699 -2.66699 10 -8 10h-332c-6.66699 0 -10 -2.66699 -10 -8
l-41 -232c0 -5.33301 -3.33301 -8 -10 -8h-76c-6.66699 0 -10 3.66699 -10 11v321c0 6.66699 3.33301 10 10 10h1133z" />
    <glyph glyph-name="U" unicode="U" horiz-adv-x="1470" 
d="M223 1278c0 6.66699 -3.33398 10.002 -10.001 10.002l-172 17c-6.66699 0 -10 3.33301 -10 10v53c0 6.66699 3.33301 10 10 10h555c6.66699 0 10 -3.33301 10 -10v-53c0 -6.66699 -3.33301 -10 -10 -10l-184 -17c-7.33301 0 -11 -3.33301 -11 -10v-739
c0 -102 5.66699 -180.667 17 -236c8.66699 -42.667 26.334 -79.334 53.001 -110.001c71.333 -82 174.333 -123 309 -123c144.667 0 252.667 57.333 324 172c22.667 36 37.667 92.333 45 169c4 41.333 6 91.333 6 150v717c0 6.66699 -3.33301 10 -10 10l-174 17
c-6.66699 0 -10 3.33301 -10 10v53c0 6.66699 3.33301 10 10 10h475c6.66699 0 10 -3.33301 10 -10v-53c0 -6.66699 -3.33301 -10 -10 -10l-168 -17c-6.66699 0 -10 -3.33301 -10 -10v-709c0 -224 -46 -380.333 -138 -469c-89.333 -86 -215.333 -129 -378 -129
c-183.333 0 -321.333 46 -414 138c-40.667 40.667 -68.667 83 -84 127c-20.667 59.333 -31 135.666 -31 228.999v813z" />
    <glyph glyph-name="V" unicode="V" horiz-adv-x="1458" 
d="M557 1378c6.66699 0 10 -3.33398 10 -10.001v-53c0 -6.66699 -3.33301 -10 -10 -10l-160 -17c-4 0 -6.66699 -1.33301 -8 -4s-1.33301 -6 0 -10l379 -1014l391 1018c3.33301 8.66699 0 13.334 -10 14.001l-154 13c-6.66699 0.666992 -10 4 -10 10v53
c0 6.66699 3.33301 10 10 10h445c6.66699 0 10 -3.33301 10 -10v-53c0 -6.66699 -3.33301 -10 -10 -10l-168 -17c-3.33301 -0.666992 -6 -2.66699 -8 -6l-510 -1305c-1.33301 -4 -4.33301 -6 -9 -6h-53c-4 0 -6.66699 2 -8 6l-483 1303c-1.33301 4 -4 6 -8 6l-164 19
c-6 0 -9 3.33301 -9 10v53c0 6.66699 3.66699 10 11 10h526z" />
    <glyph glyph-name="W" unicode="W" horiz-adv-x="2122" 
d="M557 1378c6.66699 0 10.0029 -3.33301 10.0029 -10v-53c0 -6.66699 -3.33301 -10 -10 -10l-156 -17c-4 0 -6.66699 -1.33301 -8 -4s-1.33301 -6 0 -10l369 -1014l260 715l-107 305c-2.66699 4 -5.33398 6 -8.00098 6l-168 19c-5.33301 0 -8 3.33301 -8 10v53
c0 6.66699 3.33301 10 10 10h527c6.66699 0 10 -3.33301 10 -10v-53c0 -6.66699 -3.33301 -10 -10 -10l-156 -17c-8.66699 0 -11.334 -4.66699 -8.00098 -14l348 -1016l365 1020c4 8 0.333008 12.667 -11 14l-149 13c-6.66699 0.666992 -10 4 -10 10v53
c0 6.66699 3.33301 10 10 10h446c7.33301 0 11 -3.33301 11 -10v-53c0 -6.66699 -3.66699 -10 -11 -10l-172 -17c-4 0 -6.66699 -2 -8 -6l-483 -1305c-1.33301 -4 -4 -6 -8 -6h-56c-4 0 -6.66699 2 -8 6l-301 863l-322 -863c-2.66699 -4 -5.33398 -6 -8.00098 -6h-51
c-3.33301 0.666992 -6 2.66699 -8 6l-473 1303c-1.33301 4 -4 6 -8 6l-168 19c-6 0 -9 3.33301 -9 10v53c0 6.66699 3.66699 10 11 10h526z" />
    <glyph glyph-name="X" unicode="X" horiz-adv-x="1335" 
d="M584 1378c6.66699 0 9.99902 -3.33301 9.99902 -10v-53c0 -6.66699 -3.33301 -10 -10 -10l-148 -13c-4 0 -6.66699 -2 -8 -6s-1.33301 -7.33301 0 -10l274 -447l312 447c1.33301 1.33301 2 3 2 5c0 7.33301 -3.33301 11 -10 11l-142 13c-6.66699 0 -10 3.33301 -10 10v53
c0 6.66699 3.33301 10 10 10h436c7.33301 0 11 -3.33301 11 -10v-53c0 -6.66699 -3.66699 -10 -11 -10l-153 -15c-3.33301 -0.666992 -6 -2 -8 -4l-381 -547l397 -645c2.66699 -2.66699 5.33398 -4 8.00098 -4l174 -16c7.33301 0 11 -3.66699 11 -11v-53
c0 -6.66699 -3.66699 -10 -11 -10h-553c-6.66699 -0 -10 3.33301 -10 10v53c0 6.66699 3.33301 10.334 10 11.001l148 12c4 0 6.66699 1.66699 8 5s1.33301 7 0 11l-301 486l-336 -486c-2.66699 -4 -3 -7.66699 -1 -11c0.666992 -1.33301 1.33398 -2 2.00098 -2
c2 -2 4.33301 -3 7 -3l142 -12c6.66699 -0.666992 10 -4.33398 10 -11.001v-53c0 -6.66699 -3.33301 -10 -10 -10h-437c-6.66699 -0 -10 3.33301 -10 10v53c0 7.33301 3.33301 11 10 11l154 14c3.33301 0.666992 6 2 8 4l406 586l-371 606
c-2.66699 2.66699 -5.33398 4 -8.00098 4l-174 17c-7.33301 0 -11 3.33301 -11 10v53c0 6.66699 3.66699 10 11 10h553z" />
    <glyph glyph-name="Y" unicode="Y" horiz-adv-x="1382" 
d="M1090 1276c1.33301 1.33301 2.00098 3.00098 2.00098 5.00098c0 7.33301 -3.66699 11 -11 11l-141 13c-6.66699 0 -10 3.33301 -10 10v53c0 6.66699 3.33301 10 10 10h424c6.66699 0 10 -3.33301 10 -10v-53c0 -6.66699 -3.33301 -10 -10 -10l-154 -15
c-3.33301 -0.666992 -6 -2 -8 -4l-407 -698c-1.33301 -2 -2 -5.33301 -2 -10v-478c0 -6.66699 3.33301 -10 10 -10l174 -16c6.66699 0 10 -3.66699 10 -11v-53c0 -6.66699 -3.33301 -10 -10 -10h-547c-6.66699 0 -10 3.33301 -10 10v53c0 7.33301 3.33301 11 10 11l174 16
c6.66699 0 10 3.33301 10 10v467c0 5.33301 -0.666992 9.66602 -2 12.999l-399 704c-2.66699 2.66699 -5.33398 4 -8.00098 4l-174 17c-7.33301 0 -11 3.33301 -11 10v53c0 6.66699 3.66699 10 11 10h544c7.33301 0 11 -3.33301 11 -10v-53c0 -6.66699 -3.66699 -10 -11 -10
l-147 -13c-4 0 -6.66699 -2 -8 -6s-1.33301 -7.33301 0 -10l328 -594z" />
    <glyph glyph-name="Z" unicode="Z" horiz-adv-x="1278" 
d="M264 1284c-6.66699 0 -10 -2.66602 -10 -7.99902l-41 -232c0 -5.33301 -3.33301 -8 -10 -8h-76c-6.66699 0 -10 3.66699 -10 11v321c0 6.66699 3.33301 10 10 10h1001c4.66699 0 7.66699 -2 9 -6l32 -55c1.33301 -1.33301 1.66602 -2.66602 0.999023 -3.99902l-3 -6
l-866 -1213h723c6.66699 0 10 2.66699 10 8l41 232c0 5.33301 3.33301 8 10 8h76c6.66699 0 10 -3.33301 10 -10v-322c0 -6.66699 -3.33301 -10 -10 -10h-1052c-4.66699 0 -7.66699 2 -9 6l-32 55c-1.33301 3.33301 -1.66602 5.66602 -0.999023 6.99902
s1.66699 2.66602 3 3.99902l860 1212h-666z" />
    <glyph glyph-name="bracketleft" unicode="[" horiz-adv-x="674" 
d="M184 1434c0 8 4.33301 12 13 12h340c8 0 12 -4 12 -12v-68c0 -8 -3.33301 -12 -10 -12h-244c-6.66699 0 -10 -4.33301 -10 -13v-1636c0 -6.66699 3.33301 -10 10 -10h244c8 0 11.333 -4 10 -12v-68c1.33301 -8 -2.66699 -12 -12 -12h-340c-8.66699 0 -13 4 -13 12v1819z
" />
    <glyph glyph-name="backslash" unicode="\" horiz-adv-x="635" 
d="M84 1444c7.33301 2 12 0 14 -6l553 -1526c2.66699 -7.33301 0.666992 -12 -6 -14l-76 -25c-8 -2.66699 -12.667 -0.666992 -14 6l-553 1526c-2.66699 7.33301 -0.666992 12 6 14z" />
    <glyph glyph-name="bracketright" unicode="]" horiz-adv-x="674" 
d="M489 -385c0 -8 -4.00098 -12 -12.001 -12h-341c-7.33301 0 -11.333 4 -12 12v68c0.666992 8 4 12 10 12h245c6.66699 0 10 4 10 12v1636c0 7.33301 -3.33301 11 -10 11h-245c-7.33301 0 -10.666 4 -9.99902 12v68c-0.666992 8 3.33301 12 12 12h341c8 0 12 -4 12 -12
v-1819z" />
    <glyph glyph-name="asciicircum" unicode="^" 
d="M545 1409c4 0 6.66699 -2 8 -6l360 -772c2 -1.33301 3 -3 3 -5c0 -6.66699 -3.66699 -10 -11 -10h-90c-3.33301 0.666992 -6 3 -8 7l-295 632l-295 -632c-2 -4.66699 -4.66699 -7 -8 -7h-90c-7.33301 0 -11 3.33301 -11 10c0 2 1 3.66699 3 5l360 772c1.33301 4 4 6 8 6
h66z" />
    <glyph glyph-name="underscore" unicode="_" 
d="M0 -184h1024v-95h-1024v95z" />
    <glyph glyph-name="grave" unicode="`" 
d="M580 1018c4 -9.33301 0.333984 -13.999 -10.999 -13.999h-55c-3.33301 0.666992 -6 2 -8 4l-266 354c-0.666992 1.33301 -1 2.66602 -1 3.99902c0 8 3 12 9 12h168c7.33301 0 12.666 -4 15.999 -12z" />
    <glyph glyph-name="a" unicode="a" horiz-adv-x="907" 
d="M557 426c-70 -4 -122.668 -11.667 -158.001 -23c-9.33301 -2.66699 -25.666 -8 -48.999 -16c-70.667 -24 -106 -76.667 -106 -158c0 -87.333 43.667 -131 131 -131c25.333 0 56 6.33301 92 19c18 6.66699 44.667 19 80 37c6.66699 4.66699 10 8.66699 10 12v260z
M570.999 90c-86 -79.333 -179.334 -119.001 -280.001 -119.001c-104.667 0 -175.334 43 -212.001 129c-12 28 -18 58 -18 90c0 112.667 57.333 195.334 172 248.001c34.667 16 70 27.667 106 35c80 16.667 152.667 27.667 218 33v158c0 106 -52 159 -156 159
c-59.333 0 -111 -10.667 -155 -32c-4 -3.33301 -7.33301 -9 -10 -17l-29 -151c0 -6 -3.33301 -9 -10 -9h-64c-6.66699 0 -10 3 -10 9v227c0 4 3.33301 7.33301 10 10c108 38.667 210.333 58 307 58c136.667 0 225.334 -41 266.001 -123c15.333 -30.667 23 -69.667 23 -117
v-553c0 -5.33301 2.66699 -9.33301 8 -12l129 -37c6.66699 -4 10.334 -7.33301 11.001 -10v-35c-2.66699 -7.33301 -5.66699 -11 -9 -11l-270 -36c-6.66699 0 -10 3.33301 -10 10z" />
    <glyph glyph-name="b" unicode="b" horiz-adv-x="1075" 
d="M362 109c30.667 -30.667 86 -46 166 -46c142.667 0 235.334 76 278.001 228c12.667 45.333 19 95 19 149c0 96 -18.333 173.667 -55 233c-44 72.667 -111 109 -201 109c-66.667 0 -134.334 -19.667 -203.001 -59c-2.66699 -1.33301 -4 -4 -4 -8v-606zM283 1444
c4 1.33301 7.33398 2 10.001 2h59c6.66699 0 10 -3.33301 10 -10v-633c87.333 76.667 185.666 115 294.999 115c108 0 195 -43 261 -129c61.333 -80 92 -177 92 -291c0 -150 -45 -274.667 -135 -374c-93.333 -102 -214.333 -153 -363 -153c-54 0 -114.667 8.66699 -182 26
c-56.667 14.667 -101 34.667 -133 60v1252c0 6.66699 -3.66699 10 -11 10l-159 16c-7.33301 0 -11 3.66699 -11 11v47c0 6.66699 3 10 9 10z" />
    <glyph glyph-name="c" unicode="c" horiz-adv-x="913" 
d="M535 918c94.667 0 184.001 -16 268.001 -48c6.66699 -2.66699 10 -6 10 -10v-237c0 -6 -3.33301 -9 -10 -9h-64c-6.66699 0 -10 3 -10 9l-33 155c0 4 -2.66699 8.33301 -8 13c-57.333 26.667 -110.666 40 -159.999 40c-88 0 -158 -36 -210 -108
c-46.667 -64.667 -70 -142.667 -70 -234c0 -114 25 -207 75 -279c57.333 -82.667 140.666 -124 249.999 -124c81.333 0 158.666 24.667 231.999 74c4 2.66699 6.66699 3.33398 8 2.00098s2.66602 -3.33301 3.99902 -6l29 -50c2.66699 -4.66699 0.666992 -9.33398 -6 -14.001
c-116.667 -80.667 -230.667 -121 -342 -121c-132.667 0 -238 41.333 -316 124c-77.333 80.667 -116 187.667 -116 321c0 140 42.667 258 128 354c88.667 98.667 202.334 148 341.001 148z" />
    <glyph glyph-name="d" unicode="d" horiz-adv-x="1081" 
d="M713 780c-14.667 14.667 -36.332 25.333 -64.999 32c-38.667 8.66699 -72.334 13 -101.001 13c-98.667 0 -174.667 -39.333 -228 -118c-46 -68.667 -69 -154.667 -69 -258c0 -95.333 18.333 -173 55 -233c44 -73.333 111 -110 201 -110
c71.333 0 136.666 18.667 195.999 56c6.66699 6 10.334 10 11.001 12v606zM799.002 1444c4 1.33301 7.33301 2.00098 10 2.00098h59c7.33301 0 11 -3.33301 11 -10v-1338c0 -6.66699 3.33301 -10 10 -10l147 -16c7.33301 0 11 -3.66699 11 -11v-47c0 -6 -3 -9.33301 -9 -10
l-305 -20c-6 -0.666992 -9.33301 2.66602 -10 9.99902l-6 96c-98 -79.333 -197.667 -119 -299 -119c-108.667 0 -196 44.333 -262 133c-60 80.667 -90 176.334 -90 287.001c0 149.333 45 273.666 135 372.999c94 102.667 214.667 154 362 154
c41.333 0 91.333 -6.33301 150 -19v410c0 6.66699 -3.66699 10 -11 10l-159 16c-7.33301 0 -11 3.66699 -11 11v47c0 6.66699 3 10 9 10z" />
    <glyph glyph-name="e" unicode="e" horiz-adv-x="940" 
d="M477 827c-106.667 0 -175.667 -59.333 -207 -178c-9.33301 -35.333 -15.333 -70 -18 -104h418c6 188 -58.333 282 -193 282zM250 465c2.66699 -111.333 28.666 -200.001 77.999 -266.001c56.667 -75.333 138.334 -113 245.001 -113c85.333 0 165.333 23.333 240 70
c2.66699 2.66699 5 3.33398 7 2.00098c1.33301 -2 3 -4 5 -6l29 -50c1.33301 -6 -0.666992 -10.667 -6 -14c-116.667 -78 -234.667 -117 -354 -117c-133.333 0 -238.333 41.333 -315 124c-75.333 80 -113 187 -113 321c0 137.333 36.667 253 110 347
c80 103.333 186.667 155 320 155c118 0 207.667 -33.667 269 -101c59.333 -65.333 89 -157.333 89 -276c0 -21.333 -1.33301 -43.333 -4 -66c0 -6.66699 -3.33301 -10 -10 -10h-590z" />
    <glyph glyph-name="f" unicode="f" horiz-adv-x="651" 
d="M47 0c-6.66699 0 -10 3.33496 -10 10.002v51c0 7.33301 3.33301 11 10 11l160 14c6.66699 0 10 3.33301 10 10v684c-2.66699 4 -6 6 -10 6h-152c-6.66699 0 -10 3.66699 -10 11v51c0 6.66699 3.33301 10 10 10l152 19c6.66699 0 10 3.33301 10 10v92c0 172 32 292 96 360
c66.667 71.333 157 107 271 107c47.333 0 111.333 -10.333 192 -31c6.66699 -3.33301 10 -7.33301 10 -12v-232c0 -5.33301 -3.33301 -8 -10 -8h-63c-7.33301 0 -11 2.66699 -11 8l-26 140c-2.66699 13.333 -21.667 24.666 -57 33.999c-17.333 4.66699 -36 7 -56 7
c-120 0 -180 -95 -180 -285v-176c0 -6.66699 3.33301 -10 10 -10h246c6.66699 0 10 -3.66699 10 -11v-73c0 -7.33301 -3.33301 -11 -10 -11h-246c-6.66699 0 -10 -3.33301 -10 -10v-680c0 -6 3.33301 -9.33301 10 -10l162 -14c6.66699 -0.666992 10 -4.33398 10 -11.001v-51
c0 -6.66699 -3.33301 -10 -10 -10h-508z" />
    <glyph glyph-name="g" unicode="g" horiz-adv-x="975" 
d="M350 -57c-39.333 -6.66699 -73.667 -30.5 -103 -71.5s-44 -82.167 -44 -123.5c0 -128 90 -192 270 -192c84 0 153.333 15.333 208 46c67.333 38.667 101 97 101 175c0 110.667 -86.667 166 -260 166h-172zM478.999 346c71.333 0 120 40.334 146 121.001
c9.33301 29.333 14 67 14 113c0 167.333 -56 251 -168 251c-77.333 0 -129 -41.667 -155 -125c-10 -32 -15 -70 -15 -114c0 -84.667 19.333 -149.334 58 -194.001c30 -34.667 70 -52 120 -52zM335.999 281.001c-48 -28 -71.999 -59.0049 -71.999 -93.0049
c0 -50.667 20.667 -79 62 -85c13.333 -2 29 -3 47 -3h159c89.333 0 155.666 -4.66699 198.999 -14c74.667 -15.333 130.667 -47.333 168 -96c23.333 -30 38.333 -66.333 45 -109c2.66699 -16.667 4 -31.667 4 -45c0 -86.667 -31 -160.667 -93 -222
c-54.667 -54 -126.667 -93.333 -216 -118c-58.667 -16 -123 -24 -193 -24c-103.333 0 -190.333 16 -261 48c-94.667 42.667 -142 109.667 -142 201c0 48 20.667 96.333 62 145c37.333 44.667 80 76.334 128 95.001c-34.667 9.33301 -62.667 28.833 -84 58.5
s-32 62.834 -32 99.501c0 68.667 50.333 133.334 151 194.001c-96.667 60.667 -145 150.334 -145 269.001c0 97.333 35.333 178 106 242c68.667 62.667 152 94 250 94c52 0 100.667 -9.66699 146 -29h299c6.66699 0 10 -3.33301 10 -10v-52c0 -6 -3.33301 -9.33301 -10 -10
l-181 -14c52 -57.333 78 -127.666 78 -210.999c0 -95.333 -34.167 -174.5 -102.5 -237.5s-150.833 -94.5 -247.5 -94.5c-50.667 0 -95.667 7 -135 21z" />
    <glyph glyph-name="h" unicode="h" horiz-adv-x="1169" 
d="M303 1444c4 1.33301 7.33301 1.99902 10 1.99902h60c6.66699 0 10 -3.33301 10 -10v-625c107.333 74 212.333 111 315 111c176.667 0 265 -99 265 -297v-529c0 -6.66699 3.33301 -10 10 -10l133 -14c6.66699 0 10 -3.66699 10 -11v-51c0 -6.66699 -3.33301 -10 -10 -10
h-449c-6.66699 0 -10 3.33301 -10 10v51c0 7.33301 3.33301 11 10 11l129 14c7.33301 0 11 3.33301 11 10v469c0 147.333 -63.667 221 -191 221c-48 0 -103 -9.33301 -165 -28c-18.667 -5.33301 -34.667 -11.666 -48 -18.999c-6.66699 -2.66699 -10 -6.66699 -10 -12v-631
c0 -6.66699 3.33301 -10 10 -10l129 -14c6.66699 0 10 -3.66699 10 -11v-51c0 -6.66699 -3.33301 -10 -10 -10h-459c-6.66699 -0 -10 3.33301 -10 10v51c0 7.33301 3.33301 11 10 11l144 14c6.66699 0 10 3.33301 10 10v1213c0 6.66699 -3.33301 10 -10 10l-160 16
c-6.66699 0 -10 3.66699 -10 11v47c0 6.66699 2.66699 10 8 10z" />
    <glyph glyph-name="i" unicode="i" horiz-adv-x="584" 
d="M291 1389c32 0 58.333 -10.167 79 -30.5s31 -46.5 31 -78.5s-10.333 -58.167 -31 -78.5s-47 -30.5 -79 -30.5s-58.5 10.167 -79.5 30.5s-31.5 46.5 -31.5 78.5s10.5 58.167 31.5 78.5s47.5 30.5 79.5 30.5zM66 0c-7.33301 0 -11 3.33203 -11 9.99902v51
c0 7.33301 3.66699 11 11 11l143 14c6.66699 0 10 3.33301 10 10v676c0 6.66699 -3.33301 10 -10 10l-148 17c-6.66699 0 -10 3.33301 -10 10v47c0 6.66699 2.66699 10 8 10l246 41c2.66699 0.666992 6.66699 1.33398 12 2.00098h58c6.66699 0 10 -3.33301 10 -10v-803
c0 -6.66699 3.33301 -10 10 -10l133 -14c7.33301 0 11 -3.66699 11 -11v-51c0 -6.66699 -3.66699 -10 -11 -10h-462z" />
    <glyph glyph-name="j" unicode="j" horiz-adv-x="528" 
d="M272 1389c32.667 0 59.333 -10 80 -30s31 -46.333 31 -79c0 -32 -10.5 -58.167 -31.5 -78.5s-47.5 -30.5 -79.5 -30.5s-58.333 10.167 -79 30.5s-31 46.5 -31 78.5s10.333 58.167 31 78.5s47 30.5 79 30.5zM286.999 907c2.66699 0.666992 6.66797 1.33203 12.001 1.99902
h57c7.33301 0 11 -3.33301 11 -10v-838c0 -142.667 -18.333 -253 -55 -331c-52 -110 -152.667 -194.667 -302 -254c-4.66699 0 -8 2.66699 -10 8l-25 43c-4 6.66699 -4 12 0 16c65.333 41.333 110.666 77.333 135.999 108c40 49.333 66.333 113 79 191
c7.33301 44.667 11 114.334 11 209.001v721c0 6.66699 -3.66699 10 -11 10l-147 17c-6.66699 0 -10 3.33301 -10 10v47c2 6.66699 4.66699 10 8 10z" />
    <glyph glyph-name="k" unicode="k" horiz-adv-x="1085" 
d="M217 1309c0 6.66699 -3.33105 9.99805 -9.99805 9.99805l-160 16c-6.66699 0 -10 3.66699 -10 11v47c0 6.66699 2.66699 10 8 10l258 41c4 1.33301 7.33301 2 10 2h60c6.66699 0 10 -3.33301 10 -10v-912c0 -4 1.33301 -6.66699 4 -8s6 0 10 4l301 277
c1.33301 2.66699 1.66602 5.33398 0.999023 8.00098s-3 4 -7 4l-104 8c-6.66699 0.666992 -10 4 -10 10v52c0 6.66699 3.33301 10 10 10h385c6.66699 0 10 -3.33301 10 -10v-52c0 -6.66699 -3.33301 -10 -10 -10l-137 -12c-2 -0.666992 -4.33301 -2 -7 -4l-270 -250
c-2.66699 -1.33301 -4 -3.33301 -4 -6c0 -3.33301 0.666992 -6 2 -8l389 -449c2 -2.66699 4 -4 6 -4l119 -12c6.66699 0 10 -3.66699 10 -11v-51c0 -6.66699 -3.33301 -10 -10 -10h-432c-6.66699 0 -10 3.33301 -10 10v51c0 6.66699 3.33301 10.334 10 11.001l82 6
c4 0 6 1.33301 6 4c0 3.33301 -0.666992 6 -2 8l-324 373c-2.66699 2.66699 -6.33398 3 -11.001 1s-7 -5 -7 -9v-359c0 -6.66699 3.33301 -10 10 -10l107 -14c6.66699 0 10 -3.66699 10 -11v-51c0 -6.66699 -3.33301 -10 -10 -10h-432c-7.33301 -0 -11 3.33301 -11 10v51
c0 7.33301 3.66699 11 11 11l139 14c6.66699 0 10 3.33301 10 10v1213z" />
    <glyph glyph-name="l" unicode="l" horiz-adv-x="586" 
d="M217 1309c0 6.66699 -3.33301 10.001 -10 10.001l-160 17c-6.66699 0 -10 3.33301 -10 10v47c2 6.66699 4.66699 10 8 10l258 41c4 1.33301 7.33301 2 10 2h60c6.66699 0 10 -3.33301 10 -10v-1340c0 -6 3.33301 -9.33301 10 -10l162 -14
c6.66699 -0.666992 10 -4.33398 10 -11.001v-51c0 -6.66699 -3.33301 -10 -10 -10h-508c-6.66699 -0 -10 3.33301 -10 10v51c0 7.33301 3.33301 11 10 11l160 14c6.66699 0 10 3.33301 10 10v1213z" />
    <glyph glyph-name="m" unicode="m" horiz-adv-x="1681" 
d="M63 866l245.999 41c8 1.33301 15 2 21 2h49c6.66699 0 10 -3.33301 10 -10v-88c98.667 74 197.667 111 297 111c100.667 0 175 -43.667 223 -131c98.667 81.333 205.334 122 320.001 122c174.667 0 262 -99 262 -297v-520c0 -6.66699 3.33301 -10 10 -10l133 -14
c7.33301 0 11 -3.66699 11 -11v-51c0 -6.66699 -3.66699 -10 -11 -10h-438c-6.66699 -0 -10 3.33301 -10 10v51c0 7.33301 3.33301 11 10 11l119 14c6.66699 0 10 3.33301 10 10v459c0 147.333 -62.667 221 -188 221c-78.667 0 -147 -18.333 -205 -55
c5.33301 -21.333 8 -52 8 -92v-533c0 -6.66699 3.33301 -10 10 -10l119 -14c6.66699 0 10 -3.66699 10 -11v-51c0 -6.66699 -3.33301 -10 -10 -10h-424c-6.66699 -0 -10 3.33301 -10 10v51c0 7.33301 3.33301 11 10 11l119 14c6.66699 0 10 3.33301 10 10v469
c0 147.333 -60 221 -180 221c-67.333 0 -132.333 -15.667 -195 -47c-2.66699 -1.33301 -6 -4 -10 -8v-635c0 -6.66699 3.33301 -10 10 -10l119 -14c6.66699 0 10 -3.66699 10 -11v-51c0 -6.66699 -3.33301 -10 -10 -10h-448c-7.33301 -0 -11 3.33301 -11 10v51
c0 7.33301 3.66699 11 11 11l143 14c6.66699 0 10 3.33301 10 10v676c0 6.66699 -3.33301 10 -10 10l-147 17c-7.33301 0 -11 3.33301 -11 10v47c0 6.66699 2.66699 10 8 10z" />
    <glyph glyph-name="n" unicode="n" horiz-adv-x="1159" 
d="M309 907c7.33301 1.33301 11.667 2.00098 13 2.00098h57c6.66699 0 10 -3.33301 10 -10v-88c61.333 48.667 136.666 82.667 225.999 102c27.333 6 57.333 9 90 9c176 0 264 -99 264 -297v-529c0 -6.66699 3.33301 -10 10 -10l133 -14c6.66699 0 10 -3.66699 10 -11v-51
c0 -6.66699 -3.33301 -10 -10 -10h-448c-7.33301 0 -11 3.33301 -11 10v51c0 7.33301 3.66699 11 11 11l129 14c6.66699 0 10 3.33301 10 10v469c0 73.333 -13 127.333 -39 162c-30 39.333 -80.667 59 -152 59c-80.667 0 -151.667 -15.667 -213 -47
c-5.33301 -2.66699 -8.66602 -5.33398 -9.99902 -8.00098v-635c0 -6.66699 3.33301 -10 10 -10l129 -14c7.33301 0 11 -3.66699 11 -11v-51c0 -6.66699 -3.66699 -10 -11 -10h-458c-7.33301 -0 -11 3.33301 -11 10v51c0 7.33301 3.66699 11 11 11l143 14
c6.66699 0 10 3.33301 10 10v676c0 6.66699 -3.33301 10 -10 10l-147 17c-7.33301 0 -11 3.33301 -11 10v47c0 6.66699 2.66699 10 8 10z" />
    <glyph glyph-name="o" unicode="o" horiz-adv-x="1040" 
d="M500 829c-88.667 0 -154.333 -37.334 -197 -112.001c-34 -59.333 -51 -136.666 -51 -231.999c0 -191.333 51.333 -321 154 -389c37.333 -24.667 82.333 -37 135 -37c164.667 0 247 115.667 247 347c0 114 -19.333 207.667 -58 281c-49.333 94.667 -126 142 -230 142z
M526.001 917.999c144 0 255.333 -42.001 334 -126.001c76.667 -82 115 -195.667 115 -341c0 -139.333 -41.333 -253.666 -124 -342.999c-85.333 -91.333 -197 -137 -335 -137c-142.667 0 -253.667 42.667 -333 128c-78 82.667 -117 195.667 -117 339
c0 141.333 41 256 123 344c84.667 90.667 197 136 337 136z" />
    <glyph glyph-name="p" unicode="p" horiz-adv-x="1069" 
d="M356 109c30.667 -30.667 85.999 -46 165.999 -46c142.667 0 235.334 76 278.001 228c12.667 45.333 19 95 19 149c0 96 -18.333 173.667 -55 233c-44 72.667 -111 109 -201 109c-72 0 -137.333 -18.333 -196 -55c-7.33301 -2.66699 -11 -6.66699 -11 -12v-606z
M275.999 907c2.66699 0.666992 7 1.33301 13 2h57c6.66699 0 10 -3.33301 10 -10v-96c94 76.667 192.333 115 295 115c109.333 0 197 -44 263 -132c60 -79.333 90 -175.333 90 -288c0 -151.333 -44.667 -276.333 -134 -375c-92.667 -101.333 -214 -152 -364 -152
c-41.333 0 -91.333 6.33301 -150 19v-396c0 -6.66699 3.66699 -10 11 -10l157 -14c7.33301 0 11 -3.33301 11 -10v-52c0 -6.66699 -3.66699 -10 -11 -10h-487c-6.66699 0 -10 3.33301 -10 10v52c0 6.66699 3.33301 10 10 10l143 14c6.66699 0 10 3.33301 10 10v1178
c0 6.66699 -3.33301 10 -10 10l-147 17c-6.66699 0 -10 3.33301 -10 10v47c2 6.66699 4.66699 10 8 10z" />
    <glyph glyph-name="q" unicode="q" horiz-adv-x="1055" 
d="M713 778c-31.333 31.333 -86.667 47 -166 47c-98.667 0 -174.667 -39.333 -228 -118c-46 -68.667 -69 -154.667 -69 -258c0 -95.333 18.333 -173 55 -233c44 -73.333 111 -110 201 -110c71.333 0 136.666 18.667 195.999 56c6.66699 6 10.334 10 11.001 12v604z
M712.999 86c-89.333 -76.667 -187.667 -115.001 -295 -115.001c-108.667 0 -196 44.333 -262 133c-60 80.667 -90 176.334 -90 287.001c0 150 45 274.333 135 373c93.333 102.667 214 154 362 154c72.667 0 143 -16 211 -48l31 33c2.66699 4 6 6 10 6h53
c7.33301 0 11 -3.33301 11 -10v-1305c0 -6.66699 3.33301 -10 10 -10l137 -14c6.66699 0 10 -3.33301 10 -10v-52c0 -6.66699 -3.33301 -10 -10 -10h-467c-6.66699 0 -10 3.33301 -10 10v52c0 6.66699 3.33301 10 10 10l143 14c7.33301 0 11 3.33301 11 10v492z" />
    <glyph glyph-name="r" unicode="r" horiz-adv-x="784" 
d="M643 918c20.667 0 46.335 -6.33105 77.002 -18.998s53.334 -26.334 68.001 -41.001c2 -1.33301 3.66699 -4 5 -8s0.666016 -7.33301 -2.00098 -10l-101 -144c-4.66699 -6.66699 -8.33398 -10 -11.001 -10c-2 0 -3.66699 0.666992 -5 2c-30 30 -63 45 -99 45
c-44.667 0 -84 -19.667 -118 -59l-60 -70c-5.33301 -6 -8 -13.333 -8 -22v-486c0 -6 3.33301 -9.33301 10 -10l174 -14c7.33301 -0.666992 11 -4.33398 11 -11.001v-51c0 -6.66699 -3.66699 -10 -11 -10h-503c-7.33301 -0 -11 3.33301 -11 10v51c0 7.33301 3.66699 11 11 11
l143 14c6.66699 0 10 3.33301 10 10v676c0 6.66699 -3.33301 10 -10 10l-147 17c-7.33301 0 -11 3.33301 -11 10v47c0 6.66699 2.66699 10 8 10l246 41c7.33301 1.33301 11.666 2 12.999 2h57c6.66699 0 10 -3.33301 10 -10v-190l109 127c46.667 54.667 95 82 145 82z" />
    <glyph glyph-name="s" unicode="s" horiz-adv-x="735" 
d="M553 631c-6.66699 2 -9.99902 4.66602 -9.99902 7.99902l-33 160c0 5.33301 -2.66699 9.33301 -8 12c-33.333 15.333 -71 23 -113 23c-72 0 -121.667 -24.333 -149 -73c-10 -18 -15 -37.667 -15 -59c0 -62 49.333 -113 148 -153l86 -35
c150 -61.333 225 -144.666 225 -249.999c0 -91.333 -38 -164.333 -114 -219c-68 -49.333 -149.333 -74 -244 -74c-68.667 0 -149.334 15.667 -242.001 47c-6.66699 1.33301 -10 5 -10 11v237c0 5.33301 3.33301 8 10 8h63c7.33301 0 11 -2.66699 11 -8l32 -164
c0.666992 -2.66699 3.66699 -6.66699 9 -12c46.667 -22 95 -33 145 -33c117.333 0 176 49.333 176 148c0 58 -30 101.333 -90 130l-55 25l-92 37c-144.667 58 -217 143.333 -217 256c0 80 36 146 108 198c62 44.667 136.333 67 223 67c70.667 0 143.667 -12.333 219 -37
c7.33301 -1.33301 11 -5 11 -11v-231c0 -5.33301 -3.66699 -8 -11 -8h-63z" />
    <glyph glyph-name="t" unicode="t" horiz-adv-x="676" 
d="M158 776c0 6.66699 -3.66602 10 -10.999 10h-118c-6 0 -9 3 -9 9v10c0 4 2.33301 8 7 12l262 264c6 6 11.333 9 16 9h10c6 0 9 -3.66699 9 -11v-188c0 -6.66699 3.33301 -10 10 -10h272c6.66699 0 10 -3.66699 10 -11v-73c0 -7.33301 -3.33301 -11 -10 -11h-272
c-6.66699 0 -10 -3.33301 -10 -10v-545c0 -98 43.667 -147 131 -147c64 0 115.667 16.333 155 49c2.66699 2.66699 6 3.66699 10 3c2.66699 -0.666992 5 -1.66699 7 -3l26 -51c1.33301 -6 -0.666992 -10.667 -6 -14c-52.667 -35.333 -98 -59.333 -136 -72
c-50.667 -16.667 -102.334 -25 -155.001 -25c-56 0 -103 17.333 -141 52s-57 79.667 -57 135v618z" />
    <glyph glyph-name="u" unicode="u" horiz-adv-x="1108" 
d="M743 96c-97.333 -83.333 -199.667 -125.001 -307 -125.001c-78 0 -141.667 22.667 -191 68c-51.333 46.667 -77 108.667 -77 186v547c0 6.66699 -3.33301 10 -10 10l-148 17c-6.66699 0 -10 3.33301 -10 10v47c0 6.66699 2.66699 10 8 10l246 41
c2 0.666992 5.33301 1.33398 10 2.00098h60c6.66699 0 10 -3.33301 10 -10v-602c0 -127.333 64 -191 192 -191c66 0 133.667 21.333 203 64c6.66699 4 10 8 10 12v590c0 6.66699 -3.33301 10 -10 10l-147 17c-7.33301 0 -11 3.33301 -11 10v47c0 6.66699 3 10 9 10l245 41
c2.66699 0.666992 7 1.33398 13 2.00098h57c6.66699 0 10 -3.33301 10 -10v-801c0 -6.66699 3.33301 -10 10 -10l148 -16c6.66699 0 10 -3.66699 10 -11v-47c0 -6 -2.66699 -9.33301 -8 -10l-305 -20c-6 -0.666992 -9.33301 2.66602 -10 9.99902z" />
    <glyph glyph-name="v" unicode="v" horiz-adv-x="1040" 
d="M801 793c1.33301 3.33301 1.33398 6.66699 0.000976562 10c-1.33301 2.66699 -4 4 -8 4l-107 12c-5.33301 0 -8 2.66699 -8 8v52c0 6.66699 3.33301 10 10 10h330c6.66699 0 10 -3.33301 10 -10v-50c0 -6.66699 -3.33301 -10 -10 -10l-113 -12c-3.33301 0 -6 -2 -8 -6
l-344 -815c-2 -4 -4.66699 -6 -8 -6h-47c-3.33301 0.666992 -6.33301 2.66699 -9 6l-346 813c-2.66699 4 -5.33398 6 -8.00098 6l-119 14c-5.33301 0 -8 2.66699 -8 8v52c0 6.66699 3.33301 10 10 10h426c7.33301 0 11 -3.33301 11 -10v-52c0 -5.33301 -3 -8 -9 -8l-106 -12
c-9.33301 0 -12 -4.66699 -8 -14l235 -562z" />
    <glyph glyph-name="w" unicode="w" horiz-adv-x="1579" 
d="M750 655c2 4.66699 3.66992 9.33203 5.00293 13.999c-0.666992 2 -2.33398 5.66699 -5.00098 11l-48 119c-2.66699 4 -5.33398 6 -8.00098 6l-108 14c-5.33301 0 -8 2.66699 -8 8v52c0 6.66699 3.33301 10 10 10h411c7.33301 0 11 -3.33301 11 -10v-52
c0 -5.33301 -3 -8 -9 -8l-106 -12c-9.33301 0 -12 -4.66699 -8 -14l227 -557l225 557c4 9.33301 1.33301 14 -8 14l-106 12c-5.33301 0 -8 2.66699 -8 8v52c0 6.66699 3.33301 10 10 10h329c7.33301 0 11 -3.33301 11 -10v-50c0 -6.66699 -3.66699 -10 -11 -10l-112 -12
c-3.33301 -0.666992 -6 -2.66699 -8 -6l-334 -815c-1.33301 -4 -4 -6 -8 -6h-52c-4 0 -6.66699 2 -8 6l-237 579l-256 -579c-1.33301 -4 -4.33301 -6 -9 -6h-47c-4 0 -6.66699 2 -8 6l-334 813c-2.66699 4 -5.33398 6 -8.00098 6l-119 14c-5.33301 0 -8 2.66699 -8 8v52
c0 6.66699 3.33301 10 10 10h426c-0.666992 0.666992 -1 1.33398 -1 2.00098c8 0 12 -4 12 -12v-52c0 -5.33301 -3 -8 -9 -8l-106 -12c-9.33301 0 -12 -4.66699 -8 -14l229 -557z" />
    <glyph glyph-name="x" unicode="x" horiz-adv-x="999" 
d="M289 96c-1.33301 -4 -1.66504 -7.66895 -0.998047 -11.002s3 -5 7 -5l86 -8c6.66699 0 10 -3.66699 10 -11v-51c0 -6.66699 -3.33301 -10 -10 -10h-350c-7.33301 0 -11 3.33301 -11 10v51c0 7.33301 3.66699 11 11 11l137 14c2 0.666992 4 2 6 4l262 328
c1.33301 4 1.33301 8 0 12l-258 369c-2.66699 2.66699 -4.66699 4 -6 4l-135 14c-6.66699 0 -10 3.33301 -10 10v52c0 6.66699 3.33301 10 10 10h436c6.66699 0 10 -3.33301 10 -10v-52c0 -6 -3.33301 -9.33301 -10 -10l-76 -6c-4 0 -7 -1.66699 -9 -5s-1.66699 -7 1 -11
l160 -232l180 230c1.33301 4 1.66602 7.66699 0.999023 11s-3 5 -7 5l-68 8c-6.66699 0 -10 3.33301 -10 10v52c0 6.66699 3.33301 10 10 10h310c6.66699 0 10 -3.33301 10 -10v-52c0 -6.66699 -3.33301 -10 -10 -10l-115 -12c-2 -0.666992 -4 -2 -6 -4l-242 -303
c-3.33301 -4 -3.33301 -8.33301 0 -13l275 -397c2.66699 -2.66699 4.66699 -4 6 -4l121 -12c6.66699 0 10 -3.66699 10 -11v-51c0 -6.66699 -3.33301 -10 -10 -10h-424c-7.33301 0 -11 3.33301 -11 10v51c0 6.66699 3.66699 10.334 11 11.001l77 6
c4.66699 0.666992 7.66699 2.33398 9 5.00098c1.33301 3.33301 0.666016 7 -2.00098 11l-175 258z" />
    <glyph glyph-name="y" unicode="y" horiz-adv-x="1061" 
d="M444 889c7.33301 0 11.001 -3.33496 11.001 -10.002v-52c0 -5.33301 -3 -8 -9 -8l-106 -12c-9.33301 0 -12 -4.66699 -8 -14l241 -584l248 584c4 9.33301 1.33301 14 -8 14l-106 12c-6 0 -9 2.66699 -9 8v52c0 6.66699 3.66699 10 11 10h329
c7.33301 0 11 -3.33301 11 -10v-50c0 -6.66699 -3.66699 -10 -11 -10l-112 -12c-3.33301 -0.666992 -6 -2.66699 -8 -6l-367 -864c-132 -310 -246.667 -465 -344 -465c-4 0 -8.66699 1.33301 -14 4l-97 96c-4.66699 4.66699 -5.33398 9.33398 -2.00098 14.001l25 41
c2.66699 2.66699 6 4 10 4c64.667 0 117.334 15 158.001 45c32 24 66.667 67.333 104 130c23.333 38.667 52 97.334 86 176.001c2.66699 6 2.66699 14.667 0 26l-334 791c-2.66699 4 -5.33398 6 -8.00098 6l-119 14c-5.33301 0 -8 2.66699 -8 8v52
c0 6.66699 3.33301 10 10 10h426z" />
    <glyph glyph-name="z" unicode="z" horiz-adv-x="920" 
d="M700 86c4.66699 0 8.33301 2.66699 11 8l37 172c2.66699 5.33301 6 8 10 8h59c6.66699 0 10 -3.33301 10 -10v-254c0 -6.66699 -3.33301 -10 -10 -10h-735c-4 0 -7.33301 2.66699 -10 8l-11 43v4c0 1.33301 0.666992 2.66602 2 3.99902l537 744h-379
c-6.66699 0 -10 -2.66699 -10 -8l-35 -172c0 -6 -3.33301 -9 -10 -9h-60c-6.66699 0 -10 3.66699 -10 11v254c0 6.66699 3.33301 10 10 10h705c4 0 7.33301 -2 10 -6l13 -39v-4c0 -1.33301 -1 -2.66602 -3 -3.99902l-546 -750h415z" />
    <glyph glyph-name="braceleft" unicode="{" horiz-adv-x="662" 
d="M82 571c0 7.33301 3.33203 11.0029 9.99902 11.0029c32.667 3.33301 57.334 9.33301 74.001 18c42 28.667 63 78 63 148c0 42.667 -12.167 106.667 -36.5 192s-36.5 152.333 -36.5 201c0 91.333 26.333 161 79 209c42 38 99.667 65.333 173 82
c43.333 9.33301 100.666 14 171.999 14c6.66699 0 10 -4 10 -12v-56c0 -6 -3.33301 -9.33301 -10 -10c-76.667 -4 -133.5 -16.667 -170.5 -38s-62.5 -57.333 -76.5 -108c-7.33301 -26.667 -11 -59.334 -11 -98.001c0 -23.333 9 -116 27 -278c3.33301 -30 5 -56 5 -78
c0 -49.333 -15.667 -97 -47 -143c-23.333 -34 -50.666 -59.333 -81.999 -76v-8c34.667 -20.667 62 -46 82 -76c31.333 -46.667 47 -101.334 47 -164.001c0 -32 -5.33301 -92.333 -16 -181s-16 -154 -16 -196c0 -72 14 -126.333 42 -163
c24.667 -32.667 57.334 -53.667 98.001 -63c5.33301 -1.33301 44.666 -7 117.999 -17c6.66699 0 10 -3.66699 10 -11v-55c0 -8 -3.33301 -12 -10 -12c-162.667 0 -277.667 32.333 -345 97c-52.667 50 -79 119.333 -79 208c0 44 7.66699 97.333 23 160l39 157
c7.33301 34 11 66.333 11 97c0 85.333 -21 141 -63 167c-15.333 9.33301 -40 15.666 -74 18.999c-6.66699 0 -10 3.33301 -10 10v53z" />
    <glyph glyph-name="bar" unicode="|" horiz-adv-x="510" 
d="M205 1538c0 6.66699 3.33301 10 10 10h80c6.66699 0 10 -3.33301 10 -10v-2132c0 -6.66699 -3.33301 -10 -10 -10h-80c-6.66699 0 -10 3.33301 -10 10v2132z" />
    <glyph glyph-name="braceright" unicode="}" horiz-adv-x="662" 
d="M580 518c0 -6.66699 -3.66699 -10.002 -11 -10.002c-16.667 -1.33301 -41 -7.66602 -73 -18.999c-22.667 -14 -39.334 -37.667 -50.001 -71c-9.33301 -27.333 -14 -59.333 -14 -96c0 -40.667 12.333 -107.667 37 -201s37 -164.333 37 -213
c0 -88.667 -26.333 -158 -79 -208c-58 -54.667 -146.333 -86 -265 -94c-30 -2 -56.667 -3 -80 -3c-6.66699 0 -10 4 -10 12v55c0 7.33301 3.33301 11 10 11c29.333 4 59 7.66699 89 11c34 6 62 15.333 84 28c34.667 20.667 59.334 56.334 74.001 107.001
c7.33301 26.667 11 59 11 97c0 20 -9.33301 117.667 -28 293c-3.33301 31.333 -5 59.333 -5 84c0 65.333 15.667 120 47 164c20 28.667 47.333 54 82 76v8c-30.667 18 -58 43.333 -82 76c-31.333 43.333 -47 91 -47 143c0 32 5.5 89.333 16.5 172s16.5 144 16.5 184
c0 69.333 -13.667 124.333 -41 165c-19.333 28 -52.333 49 -99 63c-30 8 -69.333 13.333 -118 16c-6.66699 0.666992 -10 4 -10 10v56c0 8 3.33301 12 10 12c107.333 0 195.333 -14.667 264 -44c106.667 -46.667 160 -133.667 160 -261c0 -44 -12.333 -111 -37 -201
s-37 -154 -37 -192c0 -46.667 11 -86 33 -118c9.33301 -13.333 21 -23.833 35 -31.5s37 -13.167 69 -16.5c7.33301 0 11 -3.66699 11 -11v-53z" />
    <glyph glyph-name="asciitilde" unicode="~" 
d="M55 1235c-4 5.33301 -2.66699 10 4 14c98.667 91.333 194.334 137 287.001 137c43.333 0 102 -20.667 176 -62s130 -62 168 -62c68.667 0 143 38.667 223 116c6 4 11 2.66699 15 -4l41 -61c4 -5.33301 2.66699 -10.333 -4 -15
c-102.667 -91.333 -198.334 -137 -287.001 -137c-41.333 0 -100 20.833 -176 62.5s-132 62.5 -168 62.5c-68.667 0 -143 -39 -223 -117c-6 -6 -11 -4.33301 -15 5z" />
    <glyph glyph-name="exclamdown" unicode="&#xa1;" horiz-adv-x="543" 
d="M309 557c6.66699 0 10 -3.33301 10 -10l80 -1039c0 -6.66699 -3.33301 -10 -10 -10h-215c-7.33301 0 -11 3.33301 -11 10l80 1039c0 6.66699 3.33301 10 10 10h56zM282 694c-14.667 0 -28.834 3.16699 -42.501 9.5s-25.667 14.5 -36 24.5s-18.5 21.833 -24.5 35.5
s-9 28.167 -9 43.5c0 14.667 3 28.5 9 41.5s14.167 24.667 24.5 35s22.333 18.666 36 24.999s27.834 9.5 42.501 9.5c15.333 0 29.833 -3.16699 43.5 -9.5s25.167 -14.666 34.5 -24.999s17.166 -22 23.499 -35s9.5 -26.833 9.5 -41.5c0 -15.333 -3.16699 -29.833 -9.5 -43.5
s-14.166 -25.5 -23.499 -35.5s-20.833 -18.167 -34.5 -24.5s-28.167 -9.5 -43.5 -9.5z" />
    <glyph glyph-name="cent" unicode="&#xa2;" 
d="M291 489c0 -46 4.33301 -90.168 13 -132.501s22.667 -81 42 -116s44 -64.667 74 -89s66.667 -42.166 110 -53.499v729c-38 -6.66699 -72 -19.834 -102 -39.501s-54.833 -44.167 -74.5 -73.5s-35 -63.166 -46 -101.499s-16.5 -79.5 -16.5 -123.5zM625 85.999
l5.99902 -0.000976562c52 0 98.833 6.83301 140.5 20.5s78.834 31.5 111.501 53.5c4 2.66699 6.66699 3.33398 8 2.00098s2.66602 -3.33301 3.99902 -6l29 -50c2.66699 -5.33301 0.666992 -10 -6 -14c-44 -31.333 -89.167 -56.833 -135.5 -76.5
s-98.833 -33.167 -157.5 -40.5v-159c0 -7.33301 -3.66699 -11 -11 -11h-73c-7.33301 0 -11 3.66699 -11 11v155c-68 2.66699 -128 15.334 -180 38.001s-95.667 53.167 -131 91.5s-62.5 84 -81.5 137s-28.5 112.5 -28.5 178.5c0 68 10.5 131 31.5 189s50.333 108.5 88 151.5
s82 77.833 133 104.5s107.167 44 168.5 52v162c0 6.66699 3.66699 10 11 10h73c7.33301 0 11 -3.33301 11 -10v-157c44.667 -3.33301 88.5 -8.33301 131.5 -15s84.5 -17.667 124.5 -33c6.66699 -2.66699 10 -6 10 -10v-237c0 -6 -3.33301 -9 -10 -9h-64
c-2.66699 0 -5 0.666992 -7 2s-3 3.66602 -3 6.99902l-33 155c0 4 -2.66699 8.33301 -8 13c-23.333 12 -46.166 20.667 -68.499 26s-46.5 9.33301 -72.5 12v-743z" />
    <glyph glyph-name="sterling" unicode="&#xa3;" 
d="M225 119c92.667 28.667 153.002 42.999 181.002 42.999c29.333 0 87.666 -8.5 174.999 -25.5s149 -25.5 185 -25.5c43.333 0 66.666 8 69.999 24l36 189c0 5.33301 3 8 9 8h75c7.33301 0 11 -3.33301 11 -10v-332c0 -4.66699 -3.66699 -8 -11 -10
c-40 -15.333 -96 -23 -168 -23c-49.333 0 -133.666 14.333 -252.999 43s-196.666 43 -231.999 43c-46 0 -128 -22.667 -246 -68c-4.66699 -1.33301 -8 1 -10 7l-31 55c-2.66699 4.66699 -1.33398 8.66699 3.99902 12c146.667 84 225.334 252.667 236.001 506h-164
c-6.66699 0 -10 3.33301 -10 10v66c0 6.66699 3.33301 10 10 10h166c0 46.667 -9.83301 119.667 -29.5 219s-29.5 171.666 -29.5 216.999c0 106 44.667 189.333 134 250c79.333 53.333 176.666 80 291.999 80c109.333 0 213 -21.333 311 -64l6 -14v-291
c0 -6.66699 -3.33301 -10 -10 -10h-72c-6.66699 0 -10 2.66699 -10 8l-29 209c-2.66699 11.333 -6.66699 18.333 -12 21c-59.333 28.667 -125 43 -197 43c-68 0 -123.667 -18.333 -167 -55c-45.333 -38.667 -68 -92 -68 -160c0 -26.667 7.5 -92.667 22.5 -198
s22.5 -189.666 22.5 -252.999v-2h352c6.66699 0 10 -3.33301 10 -10v-66c0 -6.66699 -3.33301 -10 -10 -10h-358c-22.667 -167.333 -86.334 -312.666 -191.001 -435.999z" />
    <glyph glyph-name="currency" unicode="&#xa4;" 
d="M508 909c-34 0 -65 -6.5 -93 -19.5s-52.667 -30.667 -74 -53s-37.833 -48.166 -49.5 -77.499s-17.5 -61 -17.5 -95c0 -33.333 6.16699 -65 18.5 -95s29.5 -55.833 51.5 -77.5s47.667 -39 77 -52s61 -19.5 95 -19.5s65 6.5 93 19.5s52.667 30.333 74 52
s37.833 47.5 49.5 77.5s17.5 61.667 17.5 95c0 34 -6.16699 65.667 -18.5 95s-29.5 55.166 -51.5 77.499s-47.667 40 -77 53s-61 19.5 -95 19.5zM987 1071l-199.001 -197.003c23.333 -32.667 40.833 -67 52.5 -103s17.5 -72.333 17.5 -109
c0 -37.333 -5.83301 -73.666 -17.5 -108.999s-29.167 -68.666 -52.5 -99.999l197 -197c4 -4 4 -8.66699 0 -14l-51 -52c-4 -5.33301 -8.66699 -5.33301 -14 0l-197 197c-31.333 -24.667 -65.5 -43.167 -102.5 -55.5s-74.5 -18.5 -112.5 -18.5
c-36.667 0 -72.834 6.16699 -108.501 18.5s-68.5 30.166 -98.5 53.499l-197 -195c-5.33301 -5.33301 -10 -5.33301 -14 0l-51 52c-4 5.33301 -4 10 0 14l197 197c-23.333 32.667 -41.166 67 -53.499 103s-18.5 73.333 -18.5 112c0 36.667 5.83301 72.334 17.5 107.001
s28.834 67.667 51.501 99l-196 197c-4 5.33301 -4 10 0 14l53 54c4 4 8.66699 4 14 0l197 -197c65.333 48 136.333 72 213 72c36.667 0 73.167 -6.16699 109.5 -18.5s69.5 -30.166 99.5 -53.499l197 197c5.33301 4 10 4 14 0l53 -54c4 -4 4 -8.66699 0 -14z" />
    <glyph glyph-name="yen" unicode="&#xa5;" 
d="M805 1275c2.66699 3.33301 3.00098 7 1.00098 11s-5 6 -9 6l-101 12c-6.66699 0 -10 3.33301 -10 10v54c0 6.66699 3.33301 10 10 10h357c6.66699 0 10 -3.33301 10 -10v-54c0 -6.66699 -3.33301 -10 -10 -10l-133 -14c-3.33301 0 -6.33301 -1.33301 -9 -4l-305 -650h307
c7.33301 0 11 -3.33301 11 -10v-66c0 -6.66699 -3.66699 -10 -11 -10h-309v-113h309c7.33301 0 11 -3.33301 11 -10v-66c0 -6.66699 -3.66699 -10 -11 -10h-309v-251c0 -6.66699 3.33301 -10 10 -10l174 -16c7.33301 0 11 -3.66699 11 -11v-53
c0 -6.66699 -3.66699 -10 -11 -10h-546c-7.33301 -0 -11 3.33301 -11 10v53c0 7.33301 3.66699 11 11 11l174 16c6.66699 0 10 3.33301 10 10v251h-305c-6.66699 0 -10 3.33301 -10 10v66c0 6.66699 3.33301 10 10 10h305v113h-305c-6.66699 0 -10 3.33301 -10 10v66
c0 6.66699 3.33301 10 10 10h303l-293 648c-2.66699 2.66699 -5.33398 4 -8.00098 4l-154 16c-6.66699 0 -10 3.33301 -10 10v54c0 6.66699 3.33301 10 10 10h469c7.33301 0 11 -3.33301 11 -10v-54c0 -6.66699 -3.66699 -10 -11 -10l-106 -12c-4 0 -7.16699 -2 -9.5 -6
s-1.83301 -7.66699 1.5 -11l235 -531z" />
    <glyph glyph-name="brokenbar" unicode="&#xa6;" horiz-adv-x="510" 
d="M201 -18v628c0 7.33301 3.33301 11 10 11h88c6.66699 0 10 -3.66699 10 -11v-628c0 -7.33301 -3.33301 -11 -10 -11h-88c-6.66699 0 -10 3.66699 -10 11zM299 1409c6.66699 0 10 -3.33301 10 -10v-629c0 -6.66699 -3.33301 -10 -10 -10h-88
c-6.66699 0 -10 3.33301 -10 10v629c0 6.66699 3.33301 10 10 10h88z" />
    <glyph glyph-name="section" unicode="&#xa7;" 
d="M270 467c0 -32.667 5.50098 -61.6689 16.501 -87.002s27.333 -49.333 49 -72s49.667 -43.5 84 -62.5s75.166 -38.833 122.499 -59.5c30 4.66699 57.667 12.334 83 23.001s47.833 25 67.5 43s35 39.833 46 65.5s16.5 55.167 16.5 88.5c0 32.667 -5.5 61.834 -16.5 87.501
s-27.333 49.5 -49 71.5s-49.5 42.5 -83.5 61.5s-75 38.833 -123 59.5c-30 -4 -57.667 -11.5 -83 -22.5s-47.833 -25.333 -67.5 -43s-35 -39.5 -46 -65.5s-16.5 -55.333 -16.5 -88zM870.001 1049c0 -3.33301 -1.00293 -6.33594 -3.00293 -9.00293s-5 -4 -9 -4h-80
c-2.66699 0 -5.83398 1 -9.50098 3s-5.5 4.66699 -5.5 8l-34 229c-1.33301 5.33301 -5.66602 9.33301 -12.999 12c-21.333 10 -47.166 17.333 -77.499 22s-60.5 7 -90.5 7c-31.333 0 -60.666 -4.16699 -87.999 -12.5s-51.5 -20.666 -72.5 -36.999s-38 -36.5 -51 -60.5
s-19.5 -52.333 -19.5 -85c0 -31.333 5.5 -58.833 16.5 -82.5s25.667 -45.167 44 -64.5s40.166 -36.5 65.499 -51.5s52.333 -29.167 81 -42.5l125 -58c40.667 -18.667 79.167 -39 115.5 -61s67.5 -46.667 93.5 -74s46.5 -58.333 61.5 -93s22.5 -74.667 22.5 -120
c0 -46 -6.83301 -87.833 -20.5 -125.5s-32.834 -70.834 -57.501 -99.501s-53.667 -53.667 -87 -75s-69.333 -38 -108 -50c31.333 -18 60.666 -36.833 87.999 -56.5s51 -41.5 71 -65.5s35.333 -50.667 46 -80s16 -61.666 16 -96.999c0 -56 -11.833 -106.5 -35.5 -151.5
s-55 -83.167 -94 -114.5s-84.167 -55.333 -135.5 -72s-104.333 -25 -159 -25c-21.333 0 -45 1.16699 -71 3.5s-52.667 5.5 -80 9.5s-54.333 8.66699 -81 14s-50.334 11.333 -71.001 18c-5.33301 4.66699 -8 9 -8 13v303c0 2.66699 1 5.33398 3 8.00098s5 4 9 4h80
c2.66699 0 5.83398 -1 9.50098 -3s5.5 -4.33301 5.5 -7l34 -229c3.33301 -7.33301 7.66602 -11.666 12.999 -12.999c22 -9.33301 48 -16.333 78 -21s60 -7 90 -7c31.333 0 61 4 89 12s52.167 19.833 72.5 35.5s37 35.834 50 60.501s19.5 53.334 19.5 86.001
c0 31.333 -5.5 59 -16.5 83s-25.667 45.5 -44 64.5s-40.166 36 -65.499 51s-52.333 29.5 -81 43.5l-125 57c-40.667 19.333 -79.167 39.833 -115.5 61.5s-67.333 46.167 -93 73.5s-46.167 58.5 -61.5 93.5s-23 74.833 -23 119.5c0 46.667 6.83301 88.834 20.5 126.501
s32.834 71.167 57.501 100.5s53.334 53.833 86.001 73.5s69 36.5 109 50.5c-31.333 17.333 -60.666 36 -87.999 56s-51 41.833 -71 65.5s-35.333 49.834 -46 78.501s-16 61.667 -16 99c0 55.333 11.833 105.666 35.5 150.999s55.334 83.666 95.001 114.999
s85.167 55.166 136.5 71.499s103.666 24.5 156.999 24.5c21.333 0 45 -1 71 -3s52.667 -5 80 -9s54.333 -8.83301 81 -14.5s50.334 -11.834 71.001 -18.501c5.33301 -2.66699 8 -6.66699 8 -12v-303z" />
    <glyph glyph-name="dieresis" unicode="&#xa8;" 
d="M690 1294c15.333 0 29.166 -2.66699 41.499 -8s22.833 -12.833 31.5 -22.5s15.834 -20.667 21.501 -33s8.5 -25.166 8.5 -38.499c0 -14 -2.83301 -27 -8.5 -39s-12.834 -22.5 -21.501 -31.5s-19.167 -16.167 -31.5 -21.5s-26.166 -8 -41.499 -8
c-13.333 0 -26.5 2.66699 -39.5 8s-24 12.5 -33 21.5s-16.167 19.5 -21.5 31.5s-8 25 -8 39c0 13.333 2.66699 26.166 8 38.499s12.5 23.333 21.5 33s20 17.167 33 22.5s26.167 8 39.5 8zM334 1294c13.333 0 26.5 -2.66699 39.5 -8s24 -12.833 33 -22.5
s16.167 -20.667 21.5 -33s8 -25.166 8 -38.499c0 -14 -2.66699 -27 -8 -39s-12.5 -22.5 -21.5 -31.5s-20 -16.167 -33 -21.5s-26.167 -8 -39.5 -8c-15.333 0 -29.166 2.66699 -41.499 8s-22.833 12.5 -31.5 21.5s-15.834 19.5 -21.501 31.5s-8.5 25 -8.5 39
c0 13.333 2.83301 26.166 8.5 38.499s12.834 23.333 21.501 33s19.167 17.167 31.5 22.5s26.166 8 41.499 8z" />
    <glyph glyph-name="copyright" unicode="&#xa9;" horiz-adv-x="1550" 
d="M776 1409c100 0 193.333 -18.833 280 -56.5s161.667 -88.834 225 -153.501s113.5 -140.667 150.5 -228s55.5 -181 55.5 -281c0 -99.333 -18.5 -192.666 -55.5 -279.999s-87.167 -163.5 -150.5 -228.5s-138.333 -116.333 -225 -154s-180 -56.5 -280 -56.5
c-99.333 0 -192 18.833 -278 56.5s-161.167 89 -225.5 154s-114.833 141.167 -151.5 228.5s-55 180.666 -55 279.999c0 100 18.333 193.667 55 281s87.167 163.333 151.5 228s139.5 115.834 225.5 153.501s178.667 56.5 278 56.5zM776 1327
c-87.333 0 -168.5 -16.667 -243.5 -50s-140.167 -79 -195.5 -137s-99 -125.667 -131 -203s-48 -159.666 -48 -246.999s16 -169.5 48 -246.5s75.667 -144.5 131 -202.5s120.5 -103.833 195.5 -137.5s156.167 -50.5 243.5 -50.5s168.666 16.833 243.999 50.5
s140.833 79.5 196.5 137.5s99.334 125.5 131.001 202.5s47.5 159.167 47.5 246.5s-15.833 169.666 -47.5 246.999s-75.334 145 -131.001 203s-121.167 103.667 -196.5 137s-156.666 50 -243.999 50zM1063 903c0 -5.33301 -2.6709 -8.00391 -8.00391 -8.00391h-54
c-2.66699 0 -5 0.666992 -7 2s-3 2.66602 -3 3.99902l-26 133c0 1.33301 -0.333008 3.33301 -1 6s-4.66699 5.66699 -12 9c-18.667 8 -41 15 -67 21s-56.667 9 -92 9c-54.667 0 -101.834 -10.167 -141.501 -30.5s-72.167 -47.666 -97.5 -81.999
s-43.833 -73.666 -55.5 -117.999s-17.5 -90.166 -17.5 -137.499c0 -49.333 6.16699 -98.166 18.5 -146.499s31.833 -92 58.5 -131s60.167 -70.833 100.5 -95.5s88.5 -37 144.5 -37c26 0 52.333 2.66699 79 8s53.667 13.666 81 24.999c4 2.66699 7.33301 6 10 10
s4 6.66699 4 8l24 127c0 1.33301 1.16699 2.66602 3.5 3.99902s4.16602 2 5.49902 2h53c6.66699 0 10 -2.66699 10 -8v-192c0 -6 -2 -9.66699 -6 -11c-20.667 -9.33301 -43.5 -16.666 -68.5 -21.999s-50.5 -10.166 -76.5 -14.499s-51.667 -7.16602 -77 -8.49902
s-48.333 -2 -69 -2c-69.333 0 -131.666 10.667 -186.999 32s-103.166 51.833 -143.499 91.5s-71 87.5 -92 143.5s-31.5 118.667 -31.5 188c0 74 12.833 140 38.5 198s60.334 107 104.001 147s93.834 71 150.501 93s116 33 178 33c44.667 0 89.834 -3 135.501 -9
s87.834 -15.333 126.501 -28c4 -1.33301 6.33301 -3 7 -5s1 -4.33301 1 -7v-201z" />
    <glyph glyph-name="ordfeminine" unicode="&#xaa;" horiz-adv-x="549" 
d="M471 473c1.33301 0 2.66699 -0.333008 4 -1s2 -2.33398 2 -5.00098v-49c0 -4 -2 -6 -6 -6h-436c-2.66699 0 -4 2 -4 6v49c0 2.66699 0.333008 4.33398 1 5.00098s1.66699 1 3 1h436zM219.001 647c18 0 36.165 3.50098 54.498 10.501s35.833 15.167 52.5 24.5v156
c-23.333 -1.33301 -44.166 -3.83301 -62.499 -7.5s-37.166 -8.83398 -56.499 -15.501c-22 -8 -38.5 -20.5 -49.5 -37.5s-16.5 -35.167 -16.5 -54.5c0 -50.667 26 -76 78 -76zM335.999 633.001c-23.333 -19.333 -49.668 -35.165 -79.001 -47.498s-59.666 -18.5 -90.999 -18.5
c-20.667 0 -39.834 3.16699 -57.501 9.5s-33 15.333 -46 27s-23.333 25.667 -31 42s-11.5 33.833 -11.5 52.5c0 40 10 71.167 30 93.5s46.333 41.166 79 56.499c6.66699 2.66699 15.167 5.66699 25.5 9s23 6.66602 38 9.99902s33.5 6.83301 55.5 10.5s48 6.83398 78 9.50098
v92c0 20.667 -2.5 37.167 -7.5 49.5s-11.833 21.833 -20.5 28.5s-18.167 11 -28.5 13s-21.5 3 -33.5 3c-34.667 0 -65.667 -6.66699 -93 -20l-3 -3c-0.666992 -0.666992 -1.66699 -2.66699 -3 -6l-18 -90c0 -1.33301 -0.666992 -2.66602 -2 -3.99902s-4 -2 -8 -2h-39
c-2.66699 0 -5.16699 0.666992 -7.5 2s-3.5 2.66602 -3.5 3.99902v136c0 5.33301 3.66699 8 11 8h-2c27.333 9.33301 57.333 17.5 90 24.5s66.667 10.5 102 10.5c23.333 0 45.833 -2.5 67.5 -7.5s40.834 -13 57.501 -24s29.667 -26 39 -45s14 -42.167 14 -69.5v-332l84 -22
c4 -1.33301 6.66699 -2 8 -2s2 -2 2 -6v-21c0 -1.33301 -0.666992 -3 -2 -5s-4 -3 -8 -3l-168 -23c-4 0 -6.66699 1.16699 -8 3.5s-2 4.16602 -2 5.49902z" />
    <glyph glyph-name="guillemotleft" unicode="&#xab;" horiz-adv-x="823" 
d="M547 449l190 -297c1.33301 -6 0 -11 -4 -15l-39 -31c-5.33301 -5.33301 -10 -5.33301 -14 0l-310 326c4.66699 1.33301 4 3.33301 -2 6v33c6 2.66699 6.66699 4.66699 2 6l310 326c4 5.33301 8.66699 5.33301 14 0l39 -31c4 -4 5.33301 -8.66699 4 -14l-190 -297
c-1.33301 -4 -1.33301 -8 0 -12zM235 449l191 -297c2.66699 -6 1.33398 -11 -3.99902 -15l-39 -31c-4 -5.33301 -8.66699 -5.33301 -14 0l-310 326c1.33301 1.33301 0.666016 3.33301 -2.00098 6v33c2.66699 2.66699 3.33398 4.66699 2.00098 6l310 326
c5.33301 5.33301 10 5.33301 14 0l39 -31c5.33301 -4 6.66602 -8.66699 3.99902 -14l-191 -297c-2.66699 -4 -2.66699 -8 0 -12z" />
    <glyph glyph-name="logicalnot" unicode="&#xac;" 
d="M809 424h-696c-7.33301 0 -11 3.33301 -11 10v74c0 6.66699 3.66699 10 11 10h798c7.33301 0 11 -3.33301 11 -10v-498c0 -6.66699 -3.66699 -10 -11 -10h-82c-6.66699 -0 -10 3.33301 -10 10v404c0 6.66699 -3.33301 10 -10 10z" />
    <glyph glyph-name="registered" unicode="&#xae;" horiz-adv-x="1550" 
d="M776 1409c100 0 193.333 -18.833 280 -56.5s161.667 -88.834 225 -153.501s113.5 -140.667 150.5 -228s55.5 -181 55.5 -281c0 -99.333 -18.5 -192.666 -55.5 -279.999s-87.167 -163.5 -150.5 -228.5s-138.333 -116.333 -225 -154s-180 -56.5 -280 -56.5
c-99.333 0 -192 18.833 -278 56.5s-161.167 89 -225.5 154s-114.833 141.167 -151.5 228.5s-55 180.666 -55 279.999c0 100 18.333 193.667 55 281s87.167 163.333 151.5 228s139.5 115.834 225.5 153.501s178.667 56.5 278 56.5zM776 1327
c-87.333 0 -168.5 -16.667 -243.5 -50s-140.167 -79 -195.5 -137s-99 -125.667 -131 -203s-48 -159.666 -48 -246.999s16 -169.5 48 -246.5s75.667 -144.5 131 -202.5s120.5 -103.833 195.5 -137.5s156.167 -50.5 243.5 -50.5s168.666 16.833 243.999 50.5
s140.833 79.5 196.5 137.5s99.334 125.5 131.001 202.5s47.5 159.167 47.5 246.5s-15.833 169.666 -47.5 246.999s-75.334 145 -131.001 203s-121.167 103.667 -196.5 137s-156.666 50 -243.999 50zM651 1050c-1.33301 -2 -2.00098 -4.66699 -2.00098 -8v-317
c0 -1.33301 0.666992 -3.33301 2 -6s5 -4 11 -4h53c66.667 0 119.5 14.667 158.5 44s58.5 73.333 58.5 132c0 32.667 -6.83301 59.667 -20.5 81s-31.167 38 -52.5 50s-45.166 20.167 -71.499 24.5s-51.833 6.5 -76.5 6.5h-49c-6 0 -9.66699 -1 -11 -3zM650.999 331
c1.33301 -2 5.00195 -2.99609 11.002 -2.99609l112 -13c2.66699 0 4 -2.66699 4 -8v-45c0 -5.33301 -1.33301 -8 -4 -8h-393c-2.66699 0 -4 2.66699 -4 8v45c0 5.33301 1.33301 8 4 8l123 13c4 0 7 1 9 3s3 3.66699 3 5v706c0 1.33301 -1 3.16602 -3 5.49902s-5 3.5 -9 3.5
l-123 12c-2.66699 0 -4 2.66699 -4 8v45c0 4 0.333008 6.33301 1 7s1.66699 1 3 1h356c23.333 0 47 -0.333008 71 -1s46.5 -2.66699 67.5 -6s41.167 -7.66602 60.5 -12.999s37 -13.666 53 -24.999c24.667 -16 46.167 -38.333 64.5 -67s27.5 -65 27.5 -109
c0 -32.667 -5.66699 -62.334 -17 -89.001s-27.333 -49.834 -48 -69.501s-45 -35.667 -73 -48s-57.667 -21.833 -89 -28.5c28.667 -11.333 53.167 -27.5 73.5 -48.5s39.5 -49.167 57.5 -84.5l102 -203l4 -2c2 -1.33301 4.33301 -2 7 -2l98 -13c2.66699 0 4 -2.66699 4 -8v-45
c0 -5.33301 -1.33301 -8 -4 -8h-221h-2c0 1.33301 -0.666992 3.33301 -2 6l-105 242c-12 27.333 -23.833 50.166 -35.5 68.499s-24.334 33.666 -38.001 45.999s-29 21.166 -46 26.499s-37.833 8 -62.5 8h-20c-4.66699 0 -8.33398 -1.33301 -11.001 -4s-4 -4.66699 -4 -6
v-305c0 -1.33301 0.666992 -3 2 -5z" />
    <glyph glyph-name="uni02C9" unicode="&#xaf;" 
d="M209 1098v90c0 6.66699 3.33301 10 10 10h586c6.66699 0 10 -3.33301 10 -10v-90c0 -7.33301 -3.33301 -11 -10 -11h-586c-6.66699 0 -10 3.66699 -10 11z" />
    <glyph glyph-name="uni02C9" unicode="&#x2c9;" 
d="M209 1098v90c0 6.66699 3.33301 10 10 10h586c6.66699 0 10 -3.33301 10 -10v-90c0 -7.33301 -3.33301 -11 -10 -11h-586c-6.66699 0 -10 3.66699 -10 11z" />
    <glyph glyph-name="degree" unicode="&#xb0;" horiz-adv-x="627" 
d="M313 1262c-22.667 0 -44 -4.5 -64 -13.5s-36.833 -21 -50.5 -36s-24.5 -32.833 -32.5 -53.5s-12 -42.334 -12 -65.001c0 -23.333 4 -45.333 12 -66s18.833 -38.5 32.5 -53.5s30.5 -26.833 50.5 -35.5s41.333 -13 64 -13c23.333 0 45 4.33301 65 13s36.833 20.5 50.5 35.5
s24.5 32.833 32.5 53.5s12 42.667 12 66c0 22.667 -4 44.334 -12 65.001s-18.833 38.5 -32.5 53.5s-30.5 27 -50.5 36s-41.667 13.5 -65 13.5zM313 1346c34.667 0 67.334 -6.5 98.001 -19.5s57.5 -31.167 80.5 -54.5s41 -50 54 -80s19.5 -62.667 19.5 -98
c0 -36 -6.5 -69 -19.5 -99s-31 -56.5 -54 -79.5s-49.833 -41 -80.5 -54s-63.334 -19.5 -98.001 -19.5c-35.333 0 -68 6.5 -98 19.5s-56.667 31 -80 54s-41.5 49.5 -54.5 79.5s-19.5 63 -19.5 99c0 35.333 6.5 68 19.5 98s31.167 56.667 54.5 80s50 41.5 80 54.5
s62.667 19.5 98 19.5z" />
    <glyph glyph-name="plusminus" unicode="&#xb1;" 
d="M72 94h880c7.33301 0 11 -3.33301 11 -10v-74c0 -6.66699 -3.66699 -10 -11 -10h-880c-7.33301 -0 -11 3.33301 -11 10v74c0 6.66699 3.66699 10 11 10zM72 612h389v320c0 6.66699 3.33301 10 10 10h82c6.66699 0 10 -3.33301 10 -10v-320h389
c7.33301 0 11 -3.33301 11 -10v-74c0 -6.66699 -3.66699 -10 -11 -10h-389v-319c0 -7.33301 -3.33301 -11 -10 -11h-82c-6.66699 0 -10 3.66699 -10 11v319h-389c-7.33301 0 -11 3.33301 -11 10v74c0 6.66699 3.66699 10 11 10z" />
    <glyph glyph-name="uni00B2" unicode="&#xb2;" horiz-adv-x="758" 
d="M88 584l-19.998 39.002c-3.33301 4 -4.5 7 -3.5 9s3.5 4.33301 7.5 7c61.333 45.333 117.833 90.5 169.5 135.5s100.834 94.833 147.501 149.5c12.667 14.667 24.667 31.667 36 51s21.5 39.166 30.5 59.499s15.833 41.333 20.5 63s7 44.167 7 67.5
c0 22 -3 42.833 -9 62.5s-15.833 36.334 -29.5 50.001s-30.334 24.667 -50.001 33s-43.167 12.5 -70.5 12.5c-8.66699 0 -18 -0.333008 -28 -1s-20.167 -2 -30.5 -4s-20.333 -4.33301 -30 -7s-17.834 -6.33398 -24.501 -11.001l-29 -149
c-1.33301 -1.33301 -3 -3.33301 -5 -6s-3.66699 -4 -5 -4h-59c-1.33301 0 -3.5 0.666992 -6.5 2s-4.5 4.66602 -4.5 9.99902v190c0 10 3.66699 15.667 11 17c16 8 35 15.167 57 21.5s44.5 11.5 67.5 15.5s46.167 7 69.5 9s44.666 3 63.999 3c39.333 0 76 -5.16699 110 -15.5
s63.667 -24.333 89 -42s45.166 -39.167 59.499 -64.5s21.5 -53.666 21.5 -84.999c0 -27.333 -4.33301 -54.333 -13 -81s-19.5 -52.167 -32.5 -76.5s-27.333 -47.833 -43 -70.5s-30.5 -42.334 -44.5 -59.001c-13.333 -16 -27.166 -31.5 -41.499 -46.5s-30.5 -31 -48.5 -48
l-58.5 -53.5c-21 -18.667 -45.833 -38 -74.5 -58h371c6.66699 0 10 -3.66699 10 -11v-108c0 -6.66699 -3.33301 -10 -10 -10h-568c-4 0 -7.33301 1.33301 -10 4z" />
    <glyph glyph-name="uni00B3" unicode="&#xb3;" horiz-adv-x="758" 
d="M256 1024c34 0 64.9971 2.33203 92.9971 6.99902s52 13.5 72 26.5s35.667 30.833 47 53.5s17 51 17 85c0 23.333 -4 43.166 -12 59.499s-19.167 29.666 -33.5 39.999s-31.166 17.833 -50.499 22.5s-39 7 -59 7c-20.667 0 -41.167 -1.33301 -61.5 -4
s-40.166 -8 -59.499 -16l-27 -142c-2.66699 -6.66699 -7.33398 -10 -14.001 -10h-53c-8.66699 0 -13 3.33301 -13 10v193c0 6.66699 4.33301 11.334 13 14.001c36.667 12.667 74.5 22.334 113.5 29.001s78.167 10 117.5 10c31.333 0 64.833 -2.66699 100.5 -8
s68.167 -15.5 97.5 -30.5s53.5 -34.5 72.5 -58.5s28.5 -55 28.5 -93c0 -18 -3.66699 -36.5 -11 -55.5s-17.5 -37.5 -30.5 -55.5s-28.167 -34.5 -45.5 -49.5s-35.333 -26.5 -54 -34.5c28.667 -4 54.834 -12.167 78.501 -24.5s44.5 -27 62.5 -44s32 -36.5 42 -58.5
s15 -45.333 15 -70c0 -47.333 -11.833 -88.5 -35.5 -123.5s-54 -63.667 -91 -86s-77 -39 -120 -50s-84.167 -16.5 -123.5 -16.5c-18 0 -36.5 0.666992 -55.5 2s-38.833 3.66602 -59.5 6.99902s-40.5 7.16602 -59.5 11.499s-36.167 9.16602 -51.5 14.499
c-9.33301 2.66699 -14 6.66699 -14 12v201c0 6.66699 4 10 12 10h56c6.66699 0 11.334 -3.33301 14.001 -10l29 -148c18.667 -5.33301 39.334 -10 62.001 -14s45.667 -6 69 -6c28.667 0 55 3.33301 79 10s44.833 16.834 62.5 30.501s31.167 31.167 40.5 52.5
s14 46.333 14 75c0 32.667 -6.33301 58.834 -19 78.501s-29.334 35.334 -50.001 47.001s-44 19.834 -70 24.501s-52.667 7 -80 7h-22c-11.333 0 -22.333 -0.666992 -33 -2c-8 0 -12 3 -12 9v51c0 6.66699 4 10 12 10z" />
    <glyph glyph-name="acute" unicode="&#xb4;" 
d="M592 1366c2.66699 5.33301 5.00098 8.66699 7.00098 10s5 2 9 2h168c4 0 6.66699 -2 8 -6s1.33301 -7.33301 0 -10l-266 -354c-2.66699 -2.66699 -5.33398 -4 -8.00098 -4h-55c-2.66699 0 -5.5 1.66699 -8.5 5s-3.83301 6.33301 -2.5 9z" />
    <glyph glyph-name="mu" unicode="&#xb5;" horiz-adv-x="1044" 
d="M154 901l132.999 -0.00390625c6.66699 0 10 -3.33301 10 -10v-481c0 -44 3.33301 -84.833 10 -122.5s18.334 -70 35.001 -97s38.667 -48.167 66 -63.5s61.333 -23 102 -23s78.167 9 112.5 27s65.166 44.667 92.499 80v680c0 6.66699 3.33301 10 10 10h145
c7.33301 0 11 -3.33301 11 -10v-612c0 -36 1 -65.5 3 -88.5s7.33301 -42.333 16 -58s22.334 -27.667 41.001 -36s44.334 -15.166 77.001 -20.499c6.66699 -1.33301 10 -4.66602 10 -9.99902v-35c0 -4 -2.66699 -7.66699 -8 -11l-182 -34
c-4.66699 -1.33301 -8.33398 -1.33301 -11.001 0s-6 3.33301 -10 6c-27.333 16 -46.833 35 -58.5 57s-20.167 44 -25.5 66c-13.333 -19.333 -29.333 -37.833 -48 -55.5s-39.5 -33 -62.5 -46s-47.5 -23.333 -73.5 -31s-53.333 -11.5 -82 -11.5
c-22 0 -43.167 3.16699 -63.5 9.5s-38.666 14.5 -54.999 24.5s-30.333 20.833 -42 32.5s-20.167 23.834 -25.5 36.501c0 -27.333 1 -59.166 3 -95.499l6 -111.5c2 -38 4.66699 -76.5 8 -115.5s7 -75.333 11 -109s8.16699 -63.334 12.5 -89.001s7.83301 -45.5 10.5 -59.5
c1.33301 -4 0.666016 -8.66699 -2.00098 -14s-7 -8 -13 -8l-157 -17c-4 0 -7.83301 1.33301 -11.5 4s-5.5 6.33398 -5.5 11.001v1421c0 6.66699 3.66699 10 11 10z" />
    <glyph glyph-name="paragraph" unicode="&#xb6;" horiz-adv-x="1161" 
d="M721 1276v-1663c0 -6.66699 -3.33301 -10 -10 -10h-74c-6.66699 0 -10 3.33301 -10 10v807c0 2.66699 -1.5 5 -4.5 7s-5.16699 3 -6.5 3c-82.667 0 -156.5 12.667 -221.5 38s-120 59.833 -165 103.5s-79.167 93.834 -102.5 150.501s-35 116.334 -35 179.001
c0 64 12 125 36 183s58.5 109 103.5 153s100.333 78.5 166 103.5s140.167 37.5 223.5 37.5h477c6.66699 0 10 -3.33301 10 -10v-53c0 -6.66699 -2.66699 -10 -8 -10l-144 -15c-6.66699 0 -10 -3.33301 -10 -10v-1667c0 -6.66699 -3.33301 -10 -10 -10h-74
c-6.66699 0 -10 3.33301 -10 10v1663c0 6.66699 -3.33301 10 -10 10h-111c-6.66699 0 -10 -3.33301 -10 -10z" />
    <glyph glyph-name="periodcentered" unicode="&#xb7;" horiz-adv-x="512" 
d="M256 606c16.667 0 32.167 -3 46.5 -9s26.833 -14.5 37.5 -25.5s19.167 -23.667 25.5 -38s9.5 -29.833 9.5 -46.5c0 -16 -3.16699 -30.833 -9.5 -44.5s-14.833 -26 -25.5 -37s-23.167 -19.5 -37.5 -25.5s-29.833 -9 -46.5 -9s-31.834 3 -45.501 9
s-25.834 14.5 -36.501 25.5s-19.167 23.333 -25.5 37s-9.5 28.5 -9.5 44.5c0 16.667 3.16699 32.167 9.5 46.5s14.833 27 25.5 38s22.834 19.5 36.501 25.5s28.834 9 45.501 9z" />
    <glyph glyph-name="cedilla" unicode="&#xb8;" 
d="M586 6l-15.001 -103.998c44 -8.66699 76.833 -27.334 98.5 -56.001s32.5 -59.334 32.5 -92.001c0 -34 -8.83301 -63.667 -26.5 -89s-40.167 -46.5 -67.5 -63.5s-57 -30 -89 -39s-62.333 -13.5 -91 -13.5h-17.5c-9 0 -18.167 1.66699 -27.5 5c-1.33301 0 -3 1.33301 -5 4
s-2.33301 5.33398 -1 8.00098l10 49c0 1.33301 1 3 3 5s4.33301 3 7 3c19.333 0 38.833 1.33301 58.5 4s37.834 8.16699 54.501 16.5s30 19.333 40 33s15 30.834 15 51.501c0 12 -2.66699 23.833 -8 35.5s-13.5 21.167 -24.5 28.5s-23.667 13.166 -38 17.499
s-29.5 5.83301 -45.5 4.5c-3.33301 0 -6 0.666992 -8 2s-1.66699 4.66602 1 9.99902l86 180h58z" />
    <glyph glyph-name="uni00B9" unicode="&#xb9;" horiz-adv-x="758" 
d="M463 1391c6.66699 0 10 -3.66699 10 -11v-704c0 -6.66699 3.33301 -10 10 -10l144 -15c6.66699 0 10 -3.33301 10 -10v-51c0 -6.66699 -3.33301 -10 -10 -10h-453c-6.66699 0 -10 3.33301 -10 10v51c0 6.66699 3.33301 10 10 10l150 15c6.66699 0 10 3.33301 10 10v561
c0 6.66699 -2.66699 10 -8 10l-189 -35c-6.66699 0 -10 3.66699 -10 11l-14 49c0 2.66699 1 5 3 7s3.66699 3 5 3l282 107c6 1.33301 10.333 2 13 2h8h39z" />
    <glyph glyph-name="ordmasculine" unicode="&#xba;" horiz-adv-x="635" 
d="M303 1071c-27.333 0 -49.8311 -5.50293 -67.498 -16.5029s-32.667 -25.667 -45 -44s-20.833 -39.166 -25.5 -62.499s-7 -48 -7 -74c0 -31.333 3 -61.666 9 -90.999s15.833 -55.166 29.5 -77.499s31.5 -40.666 53.5 -54.999s48.667 -21.5 80 -21.5
c27.333 0 50.166 5.5 68.499 16.5s33.333 25.667 45 44s20.167 39.333 25.5 63s8 48.5 8 74.5c0 30 -3 59.833 -9 89.5s-15.833 55.667 -29.5 78s-31.834 40.666 -54.501 54.999s-49.667 21.5 -81 21.5zM322.002 1133c46 0 86.5029 -6.83203 121.503 -20.499
s64 -32.834 87 -57.501s40.667 -54.167 53 -88.5s18.5 -71.833 18.5 -112.5c0 -42 -7.16699 -80.5 -21.5 -115.5s-34.5 -65.5 -60.5 -91.5s-56.333 -45.833 -91 -59.5s-73.334 -20.5 -116.001 -20.5c-46 0 -86.5 6.83301 -121.5 20.5s-64 33.167 -87 58.5s-40.667 55 -53 89
s-18.5 71 -18.5 111c0 42 7.16699 80.5 21.5 115.5s34.166 65.5 59.499 91.5s55.666 45.833 90.999 59.5s74.333 20.5 117 20.5zM551.005 472.998c2.66699 0 4 -2 4 -6v-49c0 -4 -1.33301 -6 -4 -6h-465c-2.66699 0 -4 2 -4 6v49c0 4 1.33301 6 4 6h465z" />
    <glyph glyph-name="guillemotright" unicode="&#xbb;" horiz-adv-x="823" 
d="M276 461l-190 297c-1.33301 5.33301 0 10 4 14l39 31c4 5.33301 8.66699 5.33301 14 0l310 -326c-4.66699 -1.33301 -4 -3.33301 2 -6v-33c-6 -2.66699 -6.66699 -4.66699 -2 -6l-310 -326c-5.33301 -5.33301 -10 -5.33301 -14 0l-39 31c-4 4 -5.33301 9 -4 15l190 297
c3.33301 4 3.33301 8 0 12zM588 461l-191 297c-2.66699 5.33301 -1.33398 10 3.99902 14l39 31c4 5.33301 9 5.33301 15 0l309 -326c-1.33301 -1.33301 -0.666016 -3.33301 2.00098 -6v-33c-2.66699 -2.66699 -3.33398 -4.66699 -2.00098 -6l-309 -326
c-1.33301 -2.66699 -4.33301 -4 -9 -4c-2.66699 0 -4.66699 1.33301 -6 4l-39 31c-5.33301 4 -6.66602 9 -3.99902 15l191 297c2.66699 4 2.66699 8 0 12z" />
    <glyph glyph-name="onequarter" unicode="&#xbc;" horiz-adv-x="1720" 
d="M463 1391c6.66699 0 10 -3.66699 10 -11v-704c0 -6.66699 3.33301 -10 10 -10l144 -15c6.66699 0 10 -3.33301 10 -10v-51c0 -6.66699 -3.33301 -10 -10 -10h-453c-6.66699 0 -10 3.33301 -10 10v51c0 6.66699 3.33301 10 10 10l150 15c6.66699 0 10 3.33301 10 10v561
c0 6.66699 -2.66699 10 -8 10l-189 -35c-6.66699 0 -10 3.66699 -10 11l-14 49c0 2.66699 1 5 3 7s3.66699 3 5 3l282 107c6 1.33301 10.333 2 13 2h8h39zM1241 1421l54.001 -31.999c6.66699 -6 7.33398 -11 2.00098 -15l-799 -1403c-1.33301 -4 -3.33301 -6.33301 -6 -7
s-5.33398 -0.333984 -8.00098 0.999023l-56 33c-6.66699 4 -7.33398 9.33301 -2.00098 16l799 1403c4 6.66699 9.33301 8 16 4zM1501 286.001c0 -1.33301 0.331055 -3.16602 0.998047 -5.49902s2.33398 -3.5 5.00098 -3.5h135c4.66699 0 7 -1.33301 7 -4v-104
c0 -2.66699 -2.33301 -4 -7 -4h-135c-4 0 -6 -2.66699 -6 -8v-174c0 -7.33301 -3.33301 -11 -10 -11h-119c-6.66699 0 -10 3.66699 -10 11v174c0 5.33301 -2.66699 8 -8 8h-391c-4.66699 0 -7.66699 2 -9 6l-16 35c-1.33301 2.66699 -1.66602 4.66699 -0.999023 6
s1.66699 2.66602 3 3.99902l496 598c2.66699 1.33301 5 2.33301 7 3s3.66699 1 5 1l45 -6c5.33301 -2.66699 8 -6 8 -10v-516zM1092 277.001h260c6.66699 0 10 3.66699 10 11v315z" />
    <glyph glyph-name="onehalf" unicode="&#xbd;" horiz-adv-x="1720" 
d="M463 1391c6.66699 0 10 -3.66699 10 -11v-704c0 -6.66699 3.33301 -10 10 -10l144 -15c6.66699 0 10 -3.33301 10 -10v-51c0 -6.66699 -3.33301 -10 -10 -10h-453c-6.66699 0 -10 3.33301 -10 10v51c0 6.66699 3.33301 10 10 10l150 15c6.66699 0 10 3.33301 10 10v561
c0 6.66699 -2.66699 10 -8 10l-189 -35c-6.66699 0 -10 3.66699 -10 11l-14 49c0 2.66699 1 5 3 7s3.66699 3 5 3l282 107c6 1.33301 10.333 2 13 2h8h39zM1241 1421l54.001 -31.999c6.66699 -6 7.33398 -11 2.00098 -15l-799 -1403c-1.33301 -4 -3.33301 -6.33301 -6 -7
s-5.33398 -0.333984 -8.00098 0.999023l-56 33c-6.66699 4 -7.33398 9.33301 -2.00098 16l799 1403c4 6.66699 9.33301 8 16 4zM1050 5.00098l-19.998 39.002c-3.33301 4 -4.5 7 -3.5 9s3.5 4.33301 7.5 7c61.333 45.333 117.833 90.5 169.5 135.5
s100.834 94.833 147.501 149.5c12.667 14.667 24.667 31.667 36 51s21.5 39.166 30.5 59.499s15.833 41.333 20.5 63s7 44.167 7 67.5c0 22 -3 42.833 -9 62.5s-15.833 36.334 -29.5 50.001s-30.334 24.667 -50.001 33s-43.167 12.5 -70.5 12.5
c-8.66699 0 -18 -0.333008 -28 -1s-20.167 -2 -30.5 -4s-20.333 -4.33301 -30 -7s-17.834 -6.33398 -24.501 -11.001l-29 -149c-1.33301 -1.33301 -3 -3.33301 -5 -6s-3.66699 -4 -5 -4h-59c-1.33301 0 -3.5 0.666992 -6.5 2s-4.5 4.66602 -4.5 9.99902v190
c0 10 3.66699 15.667 11 17c16 8 35 15.167 57 21.5s44.5 11.5 67.5 15.5s46.167 7 69.5 9s44.666 3 63.999 3c39.333 0 76 -5.16699 110 -15.5s63.667 -24.333 89 -42s45.166 -39.167 59.499 -64.5s21.5 -53.666 21.5 -84.999c0 -27.333 -4.33301 -54.333 -13 -81
s-19.5 -52.167 -32.5 -76.5s-27.333 -47.833 -43 -70.5s-30.5 -42.334 -44.5 -59.001c-13.333 -16 -27.166 -31.5 -41.499 -46.5s-30.5 -31 -48.5 -48l-58.5 -53.5c-21 -18.667 -45.833 -38 -74.5 -58h371c6.66699 0 10 -3.66699 10 -11v-108
c0 -6.66699 -3.33301 -10 -10 -10h-568c-4 0 -7.33301 1.33301 -10 4z" />
    <glyph glyph-name="threequarters" unicode="&#xbe;" horiz-adv-x="1720" 
d="M256 1024c34 0 64.9971 2.33203 92.9971 6.99902s52 13.5 72 26.5s35.667 30.833 47 53.5s17 51 17 85c0 23.333 -4 43.166 -12 59.499s-19.167 29.666 -33.5 39.999s-31.166 17.833 -50.499 22.5s-39 7 -59 7c-20.667 0 -41.167 -1.33301 -61.5 -4
s-40.166 -8 -59.499 -16l-27 -142c-2.66699 -6.66699 -7.33398 -10 -14.001 -10h-53c-8.66699 0 -13 3.33301 -13 10v193c0 6.66699 4.33301 11.334 13 14.001c36.667 12.667 74.5 22.334 113.5 29.001s78.167 10 117.5 10c31.333 0 64.833 -2.66699 100.5 -8
s68.167 -15.5 97.5 -30.5s53.5 -34.5 72.5 -58.5s28.5 -55 28.5 -93c0 -18 -3.66699 -36.5 -11 -55.5s-17.5 -37.5 -30.5 -55.5s-28.167 -34.5 -45.5 -49.5s-35.333 -26.5 -54 -34.5c28.667 -4 54.834 -12.167 78.501 -24.5s44.5 -27 62.5 -44s32 -36.5 42 -58.5
s15 -45.333 15 -70c0 -47.333 -11.833 -88.5 -35.5 -123.5s-54 -63.667 -91 -86s-77 -39 -120 -50s-84.167 -16.5 -123.5 -16.5c-18 0 -36.5 0.666992 -55.5 2s-38.833 3.66602 -59.5 6.99902s-40.5 7.16602 -59.5 11.499s-36.167 9.16602 -51.5 14.499
c-9.33301 2.66699 -14 6.66699 -14 12v201c0 6.66699 4 10 12 10h56c6.66699 0 11.334 -3.33301 14.001 -10l29 -148c18.667 -5.33301 39.334 -10 62.001 -14s45.667 -6 69 -6c28.667 0 55 3.33301 79 10s44.833 16.834 62.5 30.501s31.167 31.167 40.5 52.5
s14 46.333 14 75c0 32.667 -6.33301 58.834 -19 78.501s-29.334 35.334 -50.001 47.001s-44 19.834 -70 24.501s-52.667 7 -80 7h-22c-11.333 0 -22.333 -0.666992 -33 -2c-8 0 -12 3 -12 9v51c0 6.66699 4 10 12 10zM1241 1421l54.001 -31.999
c6.66699 -6 7.33398 -11 2.00098 -15l-799 -1403c-1.33301 -4 -3.33301 -6.33301 -6 -7s-5.33398 -0.333984 -8.00098 0.999023l-56 33c-6.66699 4 -7.33398 9.33301 -2.00098 16l799 1403c4 6.66699 9.33301 8 16 4zM1501 286
c0 -1.33301 0.331055 -3.16602 0.998047 -5.49902s2.33398 -3.5 5.00098 -3.5h135c4.66699 0 7 -1.33301 7 -4v-104c0 -2.66699 -2.33301 -4 -7 -4h-135c-4 0 -6 -2.66699 -6 -8v-174c0 -7.33301 -3.33301 -11 -10 -11h-119c-6.66699 0 -10 3.66699 -10 11v174
c0 5.33301 -2.66699 8 -8 8h-391c-4.66699 0 -7.66699 2 -9 6l-16 35c-1.33301 2.66699 -1.66602 4.66699 -0.999023 6s1.66699 2.66602 3 3.99902l496 598c2.66699 1.33301 5 2.33301 7 3s3.66699 1 5 1l45 -6c5.33301 -2.66699 8 -6 8 -10v-516zM1092 277h260
c6.66699 0 10 3.66699 10 11v315z" />
    <glyph glyph-name="questiondown" unicode="&#xbf;" horiz-adv-x="801" 
d="M477 694c-14.667 0 -28.834 3.16699 -42.501 9.5s-25.667 14.5 -36 24.5s-18.5 21.833 -24.5 35.5s-9 28.167 -9 43.5c0 14.667 3 28.5 9 41.5s14.167 24.667 24.5 35s22.333 18.666 36 24.999s27.834 9.5 42.501 9.5c15.333 0 29.833 -3.16699 43.5 -9.5
s25.167 -14.666 34.5 -24.999s17.166 -22 23.499 -35s9.5 -26.833 9.5 -41.5c0 -15.333 -3.16699 -29.833 -9.5 -43.5s-14.166 -25.5 -23.499 -35.5s-20.833 -18.167 -34.5 -24.5s-28.167 -9.5 -43.5 -9.5zM504 557c5.33301 0 9.33496 -1.00391 12.002 -3.00391s4 -5 4 -9
c1.33301 -10 2.33301 -19.333 3 -28s1 -18 1 -28c0 -38 -2 -73 -6 -105s-10.5 -62.333 -19.5 -91s-19.5 -56 -31.5 -82s-25.667 -51.667 -41 -77s-32.5 -50.666 -51.5 -75.999s-36.667 -51.166 -53 -77.499s-30 -53.166 -41 -80.499s-16.5 -54.666 -16.5 -81.999
c0 -41.333 5.5 -77.333 16.5 -108s26 -55.834 45 -75.501s41.5 -34.667 67.5 -45s55.333 -15.5 88 -15.5c18 0 37.5 2.33301 58.5 7s39.833 11.334 56.5 20.001c4 2.66699 7.33301 8 10 16l29 152c0 2.66699 1 4.66699 3 6s4.33301 2 7 2h64c6.66699 0 10 -2.66699 10 -8
v-228c0 -5.33301 -3.33301 -8.66602 -10 -9.99902c-45.333 -15.333 -89.5 -27.666 -132.5 -36.999s-91.167 -14 -144.5 -14c-48 0 -93.5 5.83301 -136.5 17.5s-80.833 29.667 -113.5 54s-58.834 55.666 -78.501 93.999s-29.5 84.166 -29.5 137.499c0 46.667 9.5 89 28.5 127
s42.167 74.167 69.5 108.5s56.666 67.833 87.999 100.5s60 68 86 106c26 41.333 47.5 89 64.5 143s25.5 113 25.5 177c0 4 1.33301 7 4 9s7 3 13 3h51z" />
    <glyph glyph-name="Agrave" unicode="&#xc0;" horiz-adv-x="1454" 
d="M698 1102c-2.66699 4 -5.33398 6 -8.00098 6c-4 0 -6.66699 -2 -8 -6l-193 -490c-4 -9.33301 -1 -14 9 -14h370c10.667 0 14.334 4.66699 11.001 14zM897 0c-6.66699 0 -10 3.33496 -10 10.002v53c0 7.33301 3.33301 11 10 11l160 16c4 0 6.66699 1.33301 8 4
s1.33301 6 0 10l-152 402c-2.66699 4 -5.33398 6 -8.00098 6h-446c-3.33301 -0.666992 -6 -2.66699 -8 -6l-162 -406c-3.33301 -8.66699 0 -13.334 10 -14.001l154 -12c6.66699 -0.666992 10 -4.33398 10 -11.001v-53c0 -6.66699 -3.33301 -10 -10 -10h-443
c-6.66699 -0 -10 3.33301 -10 10v53c0 7.33301 3.33301 11 10 11l168 16c3.33301 0.666992 6 2.66699 8 6l521 1311c2.66699 4 5.33398 6 8.00098 6h51c3.33301 -0.666992 6 -2.66699 8 -6l479 -1309c1.33301 -4 4.33301 -6 9 -6l163 -18c6 0 9 -3.66699 9 -11v-53
c0 -6.66699 -3.66699 -10 -11 -10h-526zM615 1772c8 0 14.668 -3.66699 20.001 -11l145 -272c3.33301 -2.66699 4.16602 -5.66699 2.49902 -9s-4.5 -5 -8.5 -5h-61c-2.66699 0 -6 1 -10 3s-7.66699 3.66699 -11 5l-262 272c-4 2.66699 -5 6.16699 -3 10.5s5 6.5 9 6.5h179z
" />
    <glyph glyph-name="Aacute" unicode="&#xc1;" horiz-adv-x="1454" 
d="M698 1102c-2.66699 4 -5.33398 6 -8.00098 6c-4 0 -6.66699 -2 -8 -6l-193 -490c-4 -9.33301 -1 -14 9 -14h370c10.667 0 14.334 4.66699 11.001 14zM897 0c-6.66699 0 -10 3.33496 -10 10.002v53c0 7.33301 3.33301 11 10 11l160 16c4 0 6.66699 1.33301 8 4
s1.33301 6 0 10l-152 402c-2.66699 4 -5.33398 6 -8.00098 6h-446c-3.33301 -0.666992 -6 -2.66699 -8 -6l-162 -406c-3.33301 -8.66699 0 -13.334 10 -14.001l154 -12c6.66699 -0.666992 10 -4.33398 10 -11.001v-53c0 -6.66699 -3.33301 -10 -10 -10h-443
c-6.66699 -0 -10 3.33301 -10 10v53c0 7.33301 3.33301 11 10 11l168 16c3.33301 0.666992 6 2.66699 8 6l521 1311c2.66699 4 5.33398 6 8.00098 6h51c3.33301 -0.666992 6 -2.66699 8 -6l479 -1309c1.33301 -4 4.33301 -6 9 -6l163 -18c6 0 9 -3.66699 9 -11v-53
c0 -6.66699 -3.66699 -10 -11 -10h-526zM1038 1772c4 0 7.00098 -2.16699 9.00098 -6.5s1 -7.83301 -3 -10.5l-262 -272c-3.33301 -1.33301 -7 -3 -11 -5s-7.33301 -3 -10 -3h-61c-4 0 -6.83301 1.66699 -8.5 5s-0.833984 6.33301 2.49902 9l145 272
c5.33301 7.33301 12 11 20 11h179z" />
    <glyph glyph-name="Acircumflex" unicode="&#xc2;" horiz-adv-x="1454" 
d="M698 1102c-2.66699 4 -5.33398 6 -8.00098 6c-4 0 -6.66699 -2 -8 -6l-193 -490c-4 -9.33301 -1 -14 9 -14h370c10.667 0 14.334 4.66699 11.001 14zM897 0c-6.66699 0 -10 3.33496 -10 10.002v53c0 7.33301 3.33301 11 10 11l160 16c4 0 6.66699 1.33301 8 4
s1.33301 6 0 10l-152 402c-2.66699 4 -5.33398 6 -8.00098 6h-446c-3.33301 -0.666992 -6 -2.66699 -8 -6l-162 -406c-3.33301 -8.66699 0 -13.334 10 -14.001l154 -12c6.66699 -0.666992 10 -4.33398 10 -11.001v-53c0 -6.66699 -3.33301 -10 -10 -10h-443
c-6.66699 -0 -10 3.33301 -10 10v53c0 7.33301 3.33301 11 10 11l168 16c3.33301 0.666992 6 2.66699 8 6l521 1311c2.66699 4 5.33398 6 8.00098 6h51c3.33301 -0.666992 6 -2.66699 8 -6l479 -1309c1.33301 -4 4.33301 -6 9 -6l163 -18c6 0 9 -3.66699 9 -11v-53
c0 -6.66699 -3.66699 -10 -11 -10h-526zM807 1772c9.33301 0 16.002 -3.66699 20.002 -11l166 -272c1.33301 -2.66699 1.66602 -5.66699 0.999023 -9s-3 -5 -7 -5h-62c-4 0 -7.66699 1 -11 3s-6.33301 3.66699 -9 5l-168 168l-168 -168
c-2.66699 -2.66699 -5.66699 -4.66699 -9 -6s-7 -2 -11 -2h-62c-4 0 -6.33301 1.66699 -7 5s-0.333984 6.33301 0.999023 9l166 272c5.33301 7.33301 12 11 20 11h140z" />
    <glyph glyph-name="Atilde" unicode="&#xc3;" horiz-adv-x="1454" 
d="M698 1102c-2.66699 4 -5.33398 6 -8.00098 6c-4 0 -6.66699 -2 -8 -6l-193 -490c-4 -9.33301 -1 -14 9 -14h370c10.667 0 14.334 4.66699 11.001 14zM897 0c-6.66699 0 -10 3.33496 -10 10.002v53c0 7.33301 3.33301 11 10 11l160 16c4 0 6.66699 1.33301 8 4
s1.33301 6 0 10l-152 402c-2.66699 4 -5.33398 6 -8.00098 6h-446c-3.33301 -0.666992 -6 -2.66699 -8 -6l-162 -406c-3.33301 -8.66699 0 -13.334 10 -14.001l154 -12c6.66699 -0.666992 10 -4.33398 10 -11.001v-53c0 -6.66699 -3.33301 -10 -10 -10h-443
c-6.66699 -0 -10 3.33301 -10 10v53c0 7.33301 3.33301 11 10 11l168 16c3.33301 0.666992 6 2.66699 8 6l521 1311c2.66699 4 5.33398 6 8.00098 6h51c3.33301 -0.666992 6 -2.66699 8 -6l479 -1309c1.33301 -4 4.33301 -6 9 -6l163 -18c6 0 9 -3.66699 9 -11v-53
c0 -6.66699 -3.66699 -10 -11 -10h-526zM450 1554c-4 7.33301 -3.33496 12.998 1.99805 16.998c41.333 43.333 81.5 79 120.5 107s76.833 42 113.5 42c16 0 32.333 -3.66699 49 -11s33.167 -16.166 49.5 -26.499s32.333 -19.166 48 -26.499s30.167 -11 43.5 -11
c24.667 0 48 6 70 18s46 29.667 72 53c6.66699 4 11.334 4 14.001 0l35 -41c4 -5.33301 4 -10 0 -14c-42.667 -45.333 -83.334 -82 -122.001 -110s-76.667 -42 -114 -42c-14.667 0 -30.167 4.16699 -46.5 12.5l-49.5 26l-49.5 25.5c-16.333 8 -31.166 12 -44.499 12
c-20.667 0 -42 -4.83301 -64 -14.5s-47.333 -27.834 -76 -54.501c-2.66699 -3.33301 -5.66699 -5.66602 -9 -6.99902s-5.66602 0 -6.99902 4z" />
    <glyph glyph-name="Adieresis" unicode="&#xc4;" horiz-adv-x="1454" 
d="M698 1102c-2.66699 4 -5.33398 6 -8.00098 6c-4 0 -6.66699 -2 -8 -6l-193 -490c-4 -9.33301 -1 -14 9 -14h370c10.667 0 14.334 4.66699 11.001 14zM897 0c-6.66699 0 -10 3.33496 -10 10.002v53c0 7.33301 3.33301 11 10 11l160 16c4 0 6.66699 1.33301 8 4
s1.33301 6 0 10l-152 402c-2.66699 4 -5.33398 6 -8.00098 6h-446c-3.33301 -0.666992 -6 -2.66699 -8 -6l-162 -406c-3.33301 -8.66699 0 -13.334 10 -14.001l154 -12c6.66699 -0.666992 10 -4.33398 10 -11.001v-53c0 -6.66699 -3.33301 -10 -10 -10h-443
c-6.66699 -0 -10 3.33301 -10 10v53c0 7.33301 3.33301 11 10 11l168 16c3.33301 0.666992 6 2.66699 8 6l521 1311c2.66699 4 5.33398 6 8.00098 6h51c3.33301 -0.666992 6 -2.66699 8 -6l479 -1309c1.33301 -4 4.33301 -6 9 -6l163 -18c6 0 9 -3.66699 9 -11v-53
c0 -6.66699 -3.66699 -10 -11 -10h-526zM935 1704c13.333 0 26.5 -2.66699 39.5 -8s24 -12.5 33 -21.5s16.167 -20 21.5 -33s8 -26.167 8 -39.5c0 -14 -2.66699 -27.167 -8 -39.5s-12.5 -22.833 -21.5 -31.5s-20 -15.834 -33 -21.501s-26.167 -8.5 -39.5 -8.5
c-15.333 0 -29.166 2.83301 -41.499 8.5s-22.833 12.834 -31.5 21.501s-15.834 19.167 -21.501 31.5s-8.5 25.5 -8.5 39.5c0 13.333 2.83301 26.5 8.5 39.5s12.834 24 21.501 33s19.167 16.167 31.5 21.5s26.166 8 41.499 8zM541 1704c15.333 0 29.166 -2.66699 41.499 -8
s22.833 -12.5 31.5 -21.5s15.834 -20 21.501 -33s8.5 -26.167 8.5 -39.5c0 -14 -2.83301 -27.167 -8.5 -39.5s-12.834 -22.833 -21.501 -31.5s-19.167 -15.834 -31.5 -21.501s-26.166 -8.5 -41.499 -8.5c-13.333 0 -26.5 2.83301 -39.5 8.5s-24 12.834 -33 21.501
s-16.167 19.167 -21.5 31.5s-8 25.5 -8 39.5c0 13.333 2.66699 26.5 8 39.5s12.5 24 21.5 33s20 16.167 33 21.5s26.167 8 39.5 8z" />
    <glyph glyph-name="Aring" unicode="&#xc5;" horiz-adv-x="1454" 
d="M698 1102c-2.66699 4 -5.33398 6 -8.00098 6c-4 0 -6.66699 -2 -8 -6l-193 -490c-4 -9.33301 -1 -14 9 -14h370c10.667 0 14.334 4.66699 11.001 14zM897 0c-6.66699 0 -10 3.33496 -10 10.002v53c0 7.33301 3.33301 11 10 11l160 16c4 0 6.66699 1.33301 8 4
s1.33301 6 0 10l-152 402c-2.66699 4 -5.33398 6 -8.00098 6h-446c-3.33301 -0.666992 -6 -2.66699 -8 -6l-162 -406c-3.33301 -8.66699 0 -13.334 10 -14.001l154 -12c6.66699 -0.666992 10 -4.33398 10 -11.001v-53c0 -6.66699 -3.33301 -10 -10 -10h-443
c-6.66699 -0 -10 3.33301 -10 10v53c0 7.33301 3.33301 11 10 11l168 16c3.33301 0.666992 6 2.66699 8 6l521 1311c2.66699 4 5.33398 6 8.00098 6h51c3.33301 -0.666992 6 -2.66699 8 -6l479 -1309c1.33301 -4 4.33301 -6 9 -6l163 -18c6 0 9 -3.66699 9 -11v-53
c0 -6.66699 -3.66699 -10 -11 -10h-526zM737 1709c-30 0 -53.833 -10 -71.5 -30s-26.5 -44.333 -26.5 -73s8.83301 -52.5 26.5 -71.5s41.5 -28.5 71.5 -28.5s54.167 9.5 72.5 28.5s27.5 42.833 27.5 71.5s-9.16699 53 -27.5 73s-42.5 30 -72.5 30zM737 1772
c28.667 0 55.667 -4.5 81 -13.5s47.166 -21 65.499 -36s33.333 -32.333 45 -52s17.5 -41.167 17.5 -64.5s-5.83301 -44.833 -17.5 -64.5s-26.667 -37 -45 -52s-40.166 -26.667 -65.499 -35s-52.333 -12.5 -81 -12.5s-55.334 4.16699 -80.001 12.5s-46.5 20 -65.5 35
s-34 32.333 -45 52s-16.5 41.167 -16.5 64.5s5.5 44.833 16.5 64.5s26 37 45 52s40.833 27 65.5 36s51.334 13.5 80.001 13.5z" />
    <glyph glyph-name="AE" unicode="&#xc6;" horiz-adv-x="1939" 
d="M704.5 721c1.66699 -2.66699 3.83301 -4 6.5 -4h313c6.66699 0 10 3.33301 10 10v496c0 4 -1.66699 6.33301 -5 7s-7 -2.33301 -11 -9l-313 -490c-2 -4 -2.16699 -7.33301 -0.5 -10zM183.999 96l784.997 1198l-109 11c-6.66699 0 -10 3.33301 -10 10v53
c0 6.66699 3.33301 10 10 10h948c7.33301 0 11 -3.33301 11 -10v-321c0 -7.33301 -3.66699 -11 -11 -11h-75c-1.33301 0 -3.5 0.666992 -6.5 2s-4.5 3.33301 -4.5 6l-41 232c0 2.66699 -1.33301 4.66699 -4 6s-4.66699 2 -6 2h-448c-7.33301 0 -11 -3.33301 -11 -10v-547
c0 -6.66699 3.66699 -10 11 -10h273c6.66699 0 10 2.66699 10 8l20 166c0 5.33301 3.33301 8 10 8h55c7.33301 0 11 -3.33301 11 -10v-445c0 -6.66699 -3.66699 -10 -11 -10h-55c-6.66699 0 -10 2.66699 -10 8l-20 176c0 6 -3.33301 9 -10 9h-273
c-7.33301 0 -11 -3.66699 -11 -11v-512c0 -6.66699 3.66699 -10 11 -10h477c2.66699 0 5 0.666992 7 2s3 3.33301 3 6l41 228c0 2.66699 1 4.66699 3 6s4.33301 2 7 2h76c6.66699 0 10 -3.33301 10 -10v-318c0 -6.66699 -3.33301 -10 -10 -10h-987
c-6.66699 -0 -10 3.33301 -10 10v53c0 7.33301 3.33301 11 10 11l174 16c6.66699 0 10 3.33301 10 10v516c0 7.33301 -3.33301 11 -10 11h-377c-2.66699 0 -6 -2 -10 -6l-344 -521c-1.33301 -4 -0.666016 -7.33301 2.00098 -10s5.33398 -4 8.00098 -4l152 -12c4 0 7 -1 9 -3
s3 -4.66699 3 -8v-53c0 -6.66699 -3.33301 -10 -10 -10h-445c-4 0 -7 0.666992 -9 2s-3 4 -3 8v53c0 7.33301 2.66699 11 8 11l168 16c2.66699 0 5.33398 2 8.00098 6z" />
    <glyph glyph-name="Ccedilla" unicode="&#xc7;" horiz-adv-x="1325" 
d="M858 1409c24.667 0 52.667 -1.66895 84 -5.00195s63 -7.5 95 -12.5s63.5 -10.5 94.5 -16.5s57.833 -11 80.5 -15c7.33301 -1.33301 11 -4.66602 11 -9.99902v-310c0 -6.66699 -3.66699 -10 -11 -10h-79c-3.33301 0 -6 0.666992 -8 2s-3 3.33301 -3 6l-41 230
c0 4 -2.66699 7.33301 -8 10c-12 2.66699 -27.333 6.33398 -46 11.001s-37.834 9.16699 -57.501 13.5s-40 7.83301 -61 10.5s-41.167 4 -60.5 4c-91.333 0 -172.5 -14 -243.5 -42s-130.833 -67.667 -179.5 -119s-85.667 -112.833 -111 -184.5s-38 -150.5 -38 -236.5
c0 -90 13.333 -175.333 40 -256s64.667 -151.667 114 -213s108.833 -109.666 178.5 -144.999s146.834 -53 231.501 -53c14.667 0 32.667 0.666992 54 2s42.5 3.33301 63.5 6s41.833 6 62.5 10s38.334 10 53.001 18c5.33301 3.33301 8 7 8 11l41 231c0 1.33301 1 3 3 5
s4.66699 3 8 3h79c7.33301 0 11 -3.33301 11 -10v-309c0 -4 -3.66699 -7.33301 -11 -10c-22.667 -6 -47.334 -12 -74.001 -18s-56.167 -11.667 -88.5 -17s-67.166 -9.83301 -104.499 -13.5s-78 -5.5 -122 -5.5l-10 -69c44 -8.66699 76.833 -27.334 98.5 -56.001
s32.5 -59.334 32.5 -92.001c0 -34 -8.83301 -63.667 -26.5 -89s-40.167 -46.5 -67.5 -63.5s-57 -30 -89 -39s-62.333 -13.5 -91 -13.5h-17.5c-9 0 -18.167 1.66699 -27.5 5c-1.33301 0 -3.16602 1.33301 -5.49902 4s-2.83301 5.33398 -1.5 8.00098l11 49
c0 1.33301 1.33301 3 4 5s4.66699 3 6 3c19.333 0 38.833 1.33301 58.5 4s37.667 8.16699 54 16.5s29.666 19.333 39.999 33s15.5 30.834 15.5 51.501c0 12 -2.66699 23.833 -8 35.5s-13.5 21.167 -24.5 28.5s-23.667 13.166 -38 17.499s-29.833 5.83301 -46.5 4.5
c-2.66699 0 -4.66699 0.666992 -6 2s-1.33301 4.66602 0 9.99902l70 147c-104 7.33301 -197.333 30.333 -280 69s-153.667 89.834 -213 153.501s-104.666 137.5 -135.999 221.5s-47 173.667 -47 269c0 76.667 9.5 147.667 28.5 213s46 125 81 179s76.333 101.5 124 142.5
s100.167 75.5 157.5 103.5s119.166 49.167 185.499 63.5s134.166 21.5 203.499 21.5z" />
    <glyph glyph-name="Egrave" unicode="&#xc8;" horiz-adv-x="1196" 
d="M1065 1378c6.66699 0 10 -3.33301 10 -10v-321c0 -7.33301 -3.33301 -11 -10 -11h-76c-6.66699 0 -10 2.66699 -10 8l-41 232c0 5.33301 -3.33301 8 -10 8h-469c-6.66699 0 -10 -3.33301 -10 -10v-506c0 -6.66699 3.33301 -10 10 -10h282c7.33301 0 11 2.66699 11 8
l20 166c0 5.33301 3.33301 8 10 8h56c6.66699 0 10 -3.33301 10 -10v-445c0 -6.66699 -3.33301 -10 -10 -10h-56c-6.66699 0 -10 2.66699 -10 8l-20 176c0 6 -3.66699 9 -11 9h-282c-6.66699 0 -10 -3.66699 -10 -11v-553c0 -6.66699 3.33301 -10 10 -10h497
c7.33301 0 11 2.66699 11 8l41 228c0 5.33301 3.33301 8 10 8h76c6.66699 0 10 -3.33301 10 -10v-318c0 -6.66699 -3.33301 -10 -10 -10h-1008c-6.66699 -0 -10 3.33301 -10 10v53c0 7.33301 3.33301 11 10 11l174 16c6.66699 0 10 3.33301 10 10v1182
c-2.66699 4 -6 6 -10 6l-174 17c-6.66699 0 -10 3.33301 -10 10v53c0 6.66699 3.33301 10 10 10h979zM574 1772c8 0 14.668 -3.66699 20.001 -11l145 -272c3.33301 -2.66699 4.16602 -5.66699 2.49902 -9s-4.5 -5 -8.5 -5h-61c-2.66699 0 -6 1 -10 3s-7.66699 3.66699 -11 5
l-262 272c-4 2.66699 -5 6.16699 -3 10.5s5 6.5 9 6.5h179z" />
    <glyph glyph-name="Eacute" unicode="&#xc9;" horiz-adv-x="1196" 
d="M1065 1378c6.66699 0 10 -3.33301 10 -10v-321c0 -7.33301 -3.33301 -11 -10 -11h-76c-6.66699 0 -10 2.66699 -10 8l-41 232c0 5.33301 -3.33301 8 -10 8h-469c-6.66699 0 -10 -3.33301 -10 -10v-506c0 -6.66699 3.33301 -10 10 -10h282c7.33301 0 11 2.66699 11 8
l20 166c0 5.33301 3.33301 8 10 8h56c6.66699 0 10 -3.33301 10 -10v-445c0 -6.66699 -3.33301 -10 -10 -10h-56c-6.66699 0 -10 2.66699 -10 8l-20 176c0 6 -3.66699 9 -11 9h-282c-6.66699 0 -10 -3.66699 -10 -11v-553c0 -6.66699 3.33301 -10 10 -10h497
c7.33301 0 11 2.66699 11 8l41 228c0 5.33301 3.33301 8 10 8h76c6.66699 0 10 -3.33301 10 -10v-318c0 -6.66699 -3.33301 -10 -10 -10h-1008c-6.66699 -0 -10 3.33301 -10 10v53c0 7.33301 3.33301 11 10 11l174 16c6.66699 0 10 3.33301 10 10v1182
c-2.66699 4 -6 6 -10 6l-174 17c-6.66699 0 -10 3.33301 -10 10v53c0 6.66699 3.33301 10 10 10h979zM875 1772c4 0 7.00098 -2.16699 9.00098 -6.5s1 -7.83301 -3 -10.5l-262 -272c-3.33301 -1.33301 -7 -3 -11 -5s-7.33301 -3 -10 -3h-61c-4 0 -6.83301 1.66699 -8.5 5
s-0.833984 6.33301 2.49902 9l145 272c5.33301 7.33301 12 11 20 11h179z" />
    <glyph glyph-name="Ecircumflex" unicode="&#xca;" horiz-adv-x="1196" 
d="M1065 1378c6.66699 0 10 -3.33301 10 -10v-321c0 -7.33301 -3.33301 -11 -10 -11h-76c-6.66699 0 -10 2.66699 -10 8l-41 232c0 5.33301 -3.33301 8 -10 8h-469c-6.66699 0 -10 -3.33301 -10 -10v-506c0 -6.66699 3.33301 -10 10 -10h282c7.33301 0 11 2.66699 11 8
l20 166c0 5.33301 3.33301 8 10 8h56c6.66699 0 10 -3.33301 10 -10v-445c0 -6.66699 -3.33301 -10 -10 -10h-56c-6.66699 0 -10 2.66699 -10 8l-20 176c0 6 -3.66699 9 -11 9h-282c-6.66699 0 -10 -3.66699 -10 -11v-553c0 -6.66699 3.33301 -10 10 -10h497
c7.33301 0 11 2.66699 11 8l41 228c0 5.33301 3.33301 8 10 8h76c6.66699 0 10 -3.33301 10 -10v-318c0 -6.66699 -3.33301 -10 -10 -10h-1008c-6.66699 -0 -10 3.33301 -10 10v53c0 7.33301 3.33301 11 10 11l174 16c6.66699 0 10 3.33301 10 10v1182
c-2.66699 4 -6 6 -10 6l-174 17c-6.66699 0 -10 3.33301 -10 10v53c0 6.66699 3.33301 10 10 10h979zM705 1772c9.33301 0 16.002 -3.66699 20.002 -11l166 -272c1.33301 -2.66699 1.66602 -5.66699 0.999023 -9s-3 -5 -7 -5h-62c-4 0 -7.66699 1 -11 3
s-6.33301 3.66699 -9 5l-168 168l-168 -168c-2.66699 -2.66699 -5.66699 -4.66699 -9 -6s-7 -2 -11 -2h-62c-4 0 -6.33301 1.66699 -7 5s-0.333984 6.33301 0.999023 9l166 272c5.33301 7.33301 12 11 20 11h140z" />
    <glyph glyph-name="Edieresis" unicode="&#xcb;" horiz-adv-x="1196" 
d="M1065 1378c6.66699 0 10 -3.33301 10 -10v-321c0 -7.33301 -3.33301 -11 -10 -11h-76c-6.66699 0 -10 2.66699 -10 8l-41 232c0 5.33301 -3.33301 8 -10 8h-469c-6.66699 0 -10 -3.33301 -10 -10v-506c0 -6.66699 3.33301 -10 10 -10h282c7.33301 0 11 2.66699 11 8
l20 166c0 5.33301 3.33301 8 10 8h56c6.66699 0 10 -3.33301 10 -10v-445c0 -6.66699 -3.33301 -10 -10 -10h-56c-6.66699 0 -10 2.66699 -10 8l-20 176c0 6 -3.66699 9 -11 9h-282c-6.66699 0 -10 -3.66699 -10 -11v-553c0 -6.66699 3.33301 -10 10 -10h497
c7.33301 0 11 2.66699 11 8l41 228c0 5.33301 3.33301 8 10 8h76c6.66699 0 10 -3.33301 10 -10v-318c0 -6.66699 -3.33301 -10 -10 -10h-1008c-6.66699 -0 -10 3.33301 -10 10v53c0 7.33301 3.33301 11 10 11l174 16c6.66699 0 10 3.33301 10 10v1182
c-2.66699 4 -6 6 -10 6l-174 17c-6.66699 0 -10 3.33301 -10 10v53c0 6.66699 3.33301 10 10 10h979zM832 1704c13.333 0 26.5 -2.66699 39.5 -8s24 -12.5 33 -21.5s16.167 -20 21.5 -33s8 -26.167 8 -39.5c0 -14 -2.66699 -27.167 -8 -39.5s-12.5 -22.833 -21.5 -31.5
s-20 -15.834 -33 -21.501s-26.167 -8.5 -39.5 -8.5c-15.333 0 -29.166 2.83301 -41.499 8.5s-22.833 12.834 -31.5 21.501s-15.834 19.167 -21.501 31.5s-8.5 25.5 -8.5 39.5c0 13.333 2.83301 26.5 8.5 39.5s12.834 24 21.501 33s19.167 16.167 31.5 21.5
s26.166 8 41.499 8zM438 1704c15.333 0 29.166 -2.66699 41.499 -8s22.833 -12.5 31.5 -21.5s15.834 -20 21.501 -33s8.5 -26.167 8.5 -39.5c0 -14 -2.83301 -27.167 -8.5 -39.5s-12.834 -22.833 -21.501 -31.5s-19.167 -15.834 -31.5 -21.501s-26.166 -8.5 -41.499 -8.5
c-13.333 0 -26.5 2.83301 -39.5 8.5s-24 12.834 -33 21.501s-16.167 19.167 -21.5 31.5s-8 25.5 -8 39.5c0 13.333 2.66699 26.5 8 39.5s12.5 24 21.5 33s20 16.167 33 21.5s26.167 8 39.5 8z" />
    <glyph glyph-name="Igrave" unicode="&#xcc;" horiz-adv-x="723" 
d="M637 1378c6.66699 0 10 -3.33301 10 -10v-53c0 -6.66699 -3.33301 -10 -10 -10l-174 -17c-6.66699 0 -10 -3.33301 -10 -10v-1178c0 -6.66699 3.33301 -10 10 -10l174 -16c6.66699 0 10 -3.66699 10 -11v-53c0 -6.66699 -3.33301 -10 -10 -10h-551
c-6.66699 -0 -10 3.33301 -10 10v53c0 7.33301 3.33301 11 10 11l174 16c6.66699 0 10 3.33301 10 10v1178c0 6.66699 -3.33301 10 -10 10l-174 17c-6.66699 0 -10 3.33301 -10 10v53c0 6.66699 3.33301 10 10 10h551zM259 1772c8 0 14.668 -3.66699 20.001 -11l145 -272
c3.33301 -2.66699 4.16602 -5.66699 2.49902 -9s-4.5 -5 -8.5 -5h-61c-2.66699 0 -6 1 -10 3s-7.66699 3.66699 -11 5l-262 272c-4 2.66699 -5 6.16699 -3 10.5s5 6.5 9 6.5h179z" />
    <glyph glyph-name="Iacute" unicode="&#xcd;" horiz-adv-x="723" 
d="M637 1378c6.66699 0 10 -3.33301 10 -10v-53c0 -6.66699 -3.33301 -10 -10 -10l-174 -17c-6.66699 0 -10 -3.33301 -10 -10v-1178c0 -6.66699 3.33301 -10 10 -10l174 -16c6.66699 0 10 -3.66699 10 -11v-53c0 -6.66699 -3.33301 -10 -10 -10h-551
c-6.66699 -0 -10 3.33301 -10 10v53c0 7.33301 3.33301 11 10 11l174 16c6.66699 0 10 3.33301 10 10v1178c0 6.66699 -3.33301 10 -10 10l-174 17c-6.66699 0 -10 3.33301 -10 10v53c0 6.66699 3.33301 10 10 10h551zM643 1772c4 0 7.00098 -2.16699 9.00098 -6.5
s1 -7.83301 -3 -10.5l-262 -272c-3.33301 -1.33301 -7 -3 -11 -5s-7.33301 -3 -10 -3h-61c-4 0 -6.83301 1.66699 -8.5 5s-0.833984 6.33301 2.49902 9l145 272c5.33301 7.33301 12 11 20 11h179z" />
    <glyph glyph-name="Icircumflex" unicode="&#xce;" horiz-adv-x="723" 
d="M637 1378c6.66699 0 10 -3.33301 10 -10v-53c0 -6.66699 -3.33301 -10 -10 -10l-174 -17c-6.66699 0 -10 -3.33301 -10 -10v-1178c0 -6.66699 3.33301 -10 10 -10l174 -16c6.66699 0 10 -3.66699 10 -11v-53c0 -6.66699 -3.33301 -10 -10 -10h-551
c-6.66699 -0 -10 3.33301 -10 10v53c0 7.33301 3.33301 11 10 11l174 16c6.66699 0 10 3.33301 10 10v1178c0 6.66699 -3.33301 10 -10 10l-174 17c-6.66699 0 -10 3.33301 -10 10v53c0 6.66699 3.33301 10 10 10h551zM432 1772c9.33301 0 16.002 -3.66699 20.002 -11
l166 -272c1.33301 -2.66699 1.66602 -5.66699 0.999023 -9s-3 -5 -7 -5h-62c-4 0 -7.66699 1 -11 3s-6.33301 3.66699 -9 5l-168 168l-168 -168c-2.66699 -2.66699 -5.66699 -4.66699 -9 -6s-7 -2 -11 -2h-62c-4 0 -6.33301 1.66699 -7 5s-0.333984 6.33301 0.999023 9
l166 272c5.33301 7.33301 12 11 20 11h140z" />
    <glyph glyph-name="Idieresis" unicode="&#xcf;" horiz-adv-x="723" 
d="M637 1378c6.66699 0 10 -3.33301 10 -10v-53c0 -6.66699 -3.33301 -10 -10 -10l-174 -17c-6.66699 0 -10 -3.33301 -10 -10v-1178c0 -6.66699 3.33301 -10 10 -10l174 -16c6.66699 0 10 -3.66699 10 -11v-53c0 -6.66699 -3.33301 -10 -10 -10h-551
c-6.66699 -0 -10 3.33301 -10 10v53c0 7.33301 3.33301 11 10 11l174 16c6.66699 0 10 3.33301 10 10v1178c0 6.66699 -3.33301 10 -10 10l-174 17c-6.66699 0 -10 3.33301 -10 10v53c0 6.66699 3.33301 10 10 10h551zM559 1704c13.333 0 26.5 -2.66699 39.5 -8
s24 -12.5 33 -21.5s16.167 -20 21.5 -33s8 -26.167 8 -39.5c0 -14 -2.66699 -27.167 -8 -39.5s-12.5 -22.833 -21.5 -31.5s-20 -15.834 -33 -21.501s-26.167 -8.5 -39.5 -8.5c-15.333 0 -29.166 2.83301 -41.499 8.5s-22.833 12.834 -31.5 21.501
s-15.834 19.167 -21.501 31.5s-8.5 25.5 -8.5 39.5c0 13.333 2.83301 26.5 8.5 39.5s12.834 24 21.501 33s19.167 16.167 31.5 21.5s26.166 8 41.499 8zM165 1704c15.333 0 29.166 -2.66699 41.499 -8s22.833 -12.5 31.5 -21.5s15.834 -20 21.501 -33s8.5 -26.167 8.5 -39.5
c0 -14 -2.83301 -27.167 -8.5 -39.5s-12.834 -22.833 -21.501 -31.5s-19.167 -15.834 -31.5 -21.501s-26.166 -8.5 -41.499 -8.5c-13.333 0 -26.5 2.83301 -39.5 8.5s-24 12.834 -33 21.501s-16.167 19.167 -21.5 31.5s-8 25.5 -8 39.5c0 13.333 2.66699 26.5 8 39.5
s12.5 24 21.5 33s20 16.167 33 21.5s26.167 8 39.5 8z" />
    <glyph glyph-name="Eth" unicode="&#xd0;" horiz-adv-x="1483" 
d="M449 786c0 -6.66699 3.33398 -10 10.001 -10h319c6.66699 0 10 -3.33301 10 -10v-74c0 -6.66699 -3.33301 -10 -10 -10h-319c-1.33301 0 -3.33301 -0.666992 -6 -2s-4 -4 -4 -8v-568c0 -6.66699 3.33301 -10 10 -10h141c104 0 194.167 8.83301 270.5 26.5
s139.833 47.334 190.5 89.001s88.167 96.334 112.5 164.001s36.5 152.167 36.5 253.5c0 99.333 -10.833 189.666 -32.5 270.999s-55.667 150.666 -102 207.999s-105.833 101.333 -178.5 132s-159.334 46 -260.001 46h-178c-6.66699 0 -10 -3.33301 -10 -10v-488z
M260.001 1280l-173.999 16.002c-6.66699 0 -10 3.66699 -10 11v61c0 6.66699 3.33301 10 10 10h551c117.333 0 223.5 -14 318.5 -42s175.5 -70 241.5 -126s117.167 -126.667 153.5 -212s54.5 -186 54.5 -302c0 -126.667 -19.5 -234.334 -58.5 -323.001
s-93.667 -160.334 -164 -215.001s-154.333 -94.667 -252 -120s-205.834 -38 -324.501 -38h-520c-6.66699 -0 -10 3.33301 -10 10v62c0 6.66699 3.33301 10 10 10l174 16c6.66699 0 10 3.66699 10 11v563c0 2.66699 -1 5 -3 7s-4.33301 3 -7 3h-174
c-6.66699 0 -10 3.33301 -10 10v74c0 6.66699 3.33301 10 10 10h174c1.33301 0 3.33301 0.666992 6 2s4 4 4 8v484c0 6.66699 -3.33301 10 -10 10z" />
    <glyph glyph-name="Ntilde" unicode="&#xd1;" horiz-adv-x="1487" 
d="M41 1368c0 6.66699 3.33203 10 9.99902 10h361c3.33301 -0.666992 6 -2 8 -4l760 -1005v901c0 6.66699 -3 10 -9 10l-151 16c-6.66699 0 -10 3.66699 -10 11v61c0 6.66699 3.33301 10 10 10h426c6.66699 0 10 -3.33301 10 -10v-61c0 -7.33301 -3.33301 -11 -10 -11
l-154 -16c-6.66699 0 -10 -3.33301 -10 -10v-1276c0 -6.66699 -4 -10 -12 -10h-39c-3.33301 0.666992 -6.66602 2.66699 -9.99902 6l-883 1169v-1050c0 -7.33301 2.66699 -11 8 -11l150 -16c6.66699 0 10 -3.33301 10 -10v-62c0 -6.66699 -3.33301 -10 -10 -10h-426
c-7.33301 -0 -11 3.33301 -11 10v62c0 6.66699 3.66699 10 11 10l155 16c7.33301 0 11 3.66699 11 11v1161c0 6.66699 -3.66699 10 -11 10l-174 16c-6.66699 0 -10 3.66699 -10 11v61zM458.999 1554c-4 7.33301 -3.33496 12.998 1.99805 16.998
c41.333 43.333 81.5 79 120.5 107s76.833 42 113.5 42c16 0 32.333 -3.66699 49 -11s33.167 -16.166 49.5 -26.499s32.333 -19.166 48 -26.499s30.167 -11 43.5 -11c24.667 0 48 6 70 18s46 29.667 72 53c6.66699 4 11.334 4 14.001 0l35 -41c4 -5.33301 4 -10 0 -14
c-42.667 -45.333 -83.334 -82 -122.001 -110s-76.667 -42 -114 -42c-14.667 0 -30.167 4.16699 -46.5 12.5l-49.5 26l-49.5 25.5c-16.333 8 -31.166 12 -44.499 12c-20.667 0 -42 -4.83301 -64 -14.5s-47.333 -27.834 -76 -54.501
c-2.66699 -3.33301 -5.66699 -5.66602 -9 -6.99902s-5.66602 0 -6.99902 4z" />
    <glyph glyph-name="Ograve" unicode="&#xd2;" horiz-adv-x="1548" 
d="M782 1409c206.667 0 373.667 -68 501 -204c124.667 -132.667 187 -303 187 -511c0 -206.667 -62.667 -377.667 -188 -513c-128.667 -140 -295.334 -210 -500.001 -210c-205.333 0 -374 67.667 -506 203s-198 306 -198 512c0 208 65 380 195 516
c132.667 138 302.334 207 509.001 207zM758 1317c-153.333 0 -274.332 -60.332 -362.999 -180.999c-79.333 -108.667 -119 -242.334 -119 -401.001c0 -114 19.333 -219.667 58 -317c43.333 -108 106.666 -194.167 189.999 -258.5s178.333 -96.5 285 -96.5
c154 0 272.667 62 356 186c71.333 107.333 107 242 107 404c0 181.333 -45 335 -135 461c-96.667 135.333 -223 203 -379 203zM672.001 1772c8 0 14.668 -3.66699 20.001 -11l145 -272c3.33301 -2.66699 4.16602 -5.66699 2.49902 -9s-4.5 -5 -8.5 -5h-61
c-2.66699 0 -6 1 -10 3s-7.66699 3.66699 -11 5l-262 272c-4 2.66699 -5 6.16699 -3 10.5s5 6.5 9 6.5h179z" />
    <glyph glyph-name="Oacute" unicode="&#xd3;" horiz-adv-x="1548" 
d="M782 1409c206.667 0 373.667 -68 501 -204c124.667 -132.667 187 -303 187 -511c0 -206.667 -62.667 -377.667 -188 -513c-128.667 -140 -295.334 -210 -500.001 -210c-205.333 0 -374 67.667 -506 203s-198 306 -198 512c0 208 65 380 195 516
c132.667 138 302.334 207 509.001 207zM758 1317c-153.333 0 -274.332 -60.332 -362.999 -180.999c-79.333 -108.667 -119 -242.334 -119 -401.001c0 -114 19.333 -219.667 58 -317c43.333 -108 106.666 -194.167 189.999 -258.5s178.333 -96.5 285 -96.5
c154 0 272.667 62 356 186c71.333 107.333 107 242 107 404c0 181.333 -45 335 -135 461c-96.667 135.333 -223 203 -379 203zM1055 1772c4 0 7.00098 -2.16699 9.00098 -6.5s1 -7.83301 -3 -10.5l-262 -272c-3.33301 -1.33301 -7 -3 -11 -5s-7.33301 -3 -10 -3h-61
c-4 0 -6.83301 1.66699 -8.5 5s-0.833984 6.33301 2.49902 9l145 272c5.33301 7.33301 12 11 20 11h179z" />
    <glyph glyph-name="Ocircumflex" unicode="&#xd4;" horiz-adv-x="1548" 
d="M782 1409c206.667 0 373.667 -68 501 -204c124.667 -132.667 187 -303 187 -511c0 -206.667 -62.667 -377.667 -188 -513c-128.667 -140 -295.334 -210 -500.001 -210c-205.333 0 -374 67.667 -506 203s-198 306 -198 512c0 208 65 380 195 516
c132.667 138 302.334 207 509.001 207zM758 1317c-153.333 0 -274.332 -60.332 -362.999 -180.999c-79.333 -108.667 -119 -242.334 -119 -401.001c0 -114 19.333 -219.667 58 -317c43.333 -108 106.666 -194.167 189.999 -258.5s178.333 -96.5 285 -96.5
c154 0 272.667 62 356 186c71.333 107.333 107 242 107 404c0 181.333 -45 335 -135 461c-96.667 135.333 -223 203 -379 203zM844.001 1772c9.33301 0 16.002 -3.66699 20.002 -11l166 -272c1.33301 -2.66699 1.66602 -5.66699 0.999023 -9s-3 -5 -7 -5h-62
c-4 0 -7.66699 1 -11 3s-6.33301 3.66699 -9 5l-168 168l-168 -168c-2.66699 -2.66699 -5.66699 -4.66699 -9 -6s-7 -2 -11 -2h-62c-4 0 -6.33301 1.66699 -7 5s-0.333984 6.33301 0.999023 9l166 272c5.33301 7.33301 12 11 20 11h140z" />
    <glyph glyph-name="Otilde" unicode="&#xd5;" horiz-adv-x="1548" 
d="M782 1409c206.667 0 373.667 -68 501 -204c124.667 -132.667 187 -303 187 -511c0 -206.667 -62.667 -377.667 -188 -513c-128.667 -140 -295.334 -210 -500.001 -210c-205.333 0 -374 67.667 -506 203s-198 306 -198 512c0 208 65 380 195 516
c132.667 138 302.334 207 509.001 207zM758 1317c-153.333 0 -274.332 -60.332 -362.999 -180.999c-79.333 -108.667 -119 -242.334 -119 -401.001c0 -114 19.333 -219.667 58 -317c43.333 -108 106.666 -194.167 189.999 -258.5s178.333 -96.5 285 -96.5
c154 0 272.667 62 356 186c71.333 107.333 107 242 107 404c0 181.333 -45 335 -135 461c-96.667 135.333 -223 203 -379 203zM475.001 1554c-4 7.33301 -3.33496 12.998 1.99805 16.998c41.333 43.333 81.5 79 120.5 107s76.833 42 113.5 42c16 0 32.333 -3.66699 49 -11
s33.167 -16.166 49.5 -26.499s32.333 -19.166 48 -26.499s30.167 -11 43.5 -11c24.667 0 48 6 70 18s46 29.667 72 53c6.66699 4 11.334 4 14.001 0l35 -41c4 -5.33301 4 -10 0 -14c-42.667 -45.333 -83.334 -82 -122.001 -110s-76.667 -42 -114 -42
c-14.667 0 -30.167 4.16699 -46.5 12.5l-49.5 26l-49.5 25.5c-16.333 8 -31.166 12 -44.499 12c-20.667 0 -42 -4.83301 -64 -14.5s-47.333 -27.834 -76 -54.501c-2.66699 -3.33301 -5.66699 -5.66602 -9 -6.99902s-5.66602 0 -6.99902 4z" />
    <glyph glyph-name="Odieresis" unicode="&#xd6;" horiz-adv-x="1548" 
d="M782 1409c206.667 0 373.667 -68 501 -204c124.667 -132.667 187 -303 187 -511c0 -206.667 -62.667 -377.667 -188 -513c-128.667 -140 -295.334 -210 -500.001 -210c-205.333 0 -374 67.667 -506 203s-198 306 -198 512c0 208 65 380 195 516
c132.667 138 302.334 207 509.001 207zM758 1317c-153.333 0 -274.332 -60.332 -362.999 -180.999c-79.333 -108.667 -119 -242.334 -119 -401.001c0 -114 19.333 -219.667 58 -317c43.333 -108 106.666 -194.167 189.999 -258.5s178.333 -96.5 285 -96.5
c154 0 272.667 62 356 186c71.333 107.333 107 242 107 404c0 181.333 -45 335 -135 461c-96.667 135.333 -223 203 -379 203zM972.001 1704c13.333 0 26.5 -2.66699 39.5 -8s24 -12.5 33 -21.5s16.167 -20 21.5 -33s8 -26.167 8 -39.5c0 -14 -2.66699 -27.167 -8 -39.5
s-12.5 -22.833 -21.5 -31.5s-20 -15.834 -33 -21.501s-26.167 -8.5 -39.5 -8.5c-15.333 0 -29.166 2.83301 -41.499 8.5s-22.833 12.834 -31.5 21.501s-15.834 19.167 -21.501 31.5s-8.5 25.5 -8.5 39.5c0 13.333 2.83301 26.5 8.5 39.5s12.834 24 21.501 33
s19.167 16.167 31.5 21.5s26.166 8 41.499 8zM578.001 1704c15.333 0 29.166 -2.66699 41.499 -8s22.833 -12.5 31.5 -21.5s15.834 -20 21.501 -33s8.5 -26.167 8.5 -39.5c0 -14 -2.83301 -27.167 -8.5 -39.5s-12.834 -22.833 -21.501 -31.5s-19.167 -15.834 -31.5 -21.501
s-26.166 -8.5 -41.499 -8.5c-13.333 0 -26.5 2.83301 -39.5 8.5s-24 12.834 -33 21.501s-16.167 19.167 -21.5 31.5s-8 25.5 -8 39.5c0 13.333 2.66699 26.5 8 39.5s12.5 24 21.5 33s20 16.167 33 21.5s26.167 8 39.5 8z" />
    <glyph glyph-name="multiply" unicode="&#xd7;" 
d="M858 891c6.66699 2.66699 13.001 2.66797 19.001 0.000976562l55 -55c4 -6 4 -12.333 0 -19l-348 -346l348 -346c4 -6.66699 4 -13 0 -19l-53 -51c1.33301 -1.33301 1.33301 -2.33301 0 -3s-3.5 -1.33398 -6.5 -2.00098s-5.83301 -1 -8.5 -1s-4.66699 0.666992 -6 2
l-346 348l-346 -348c-6.66699 -4 -13 -4 -19 0l-51 51c-1.33301 -1.33301 -2.33301 -1 -3 1s-1.33398 4.5 -2.00098 7.5s-1 5.83301 -1 8.5s0.666992 4.66699 2 6l348 346l-348 346c-4 6.66699 -4 13 0 19l55 55c6 2.66699 12.333 2.66699 19 0l346 -348z" />
    <glyph glyph-name="Oslash" unicode="&#xd8;" horiz-adv-x="1548" 
d="M160 43l116.001 131c-62.667 64 -111.334 139.667 -146.001 227s-52 182.333 -52 285s17 198 51 286s82.167 164.333 144.5 229s136.833 115.5 223.5 152.5s181.667 55.5 285 55.5c92 0 175.5 -13.667 250.5 -41s141.167 -65.666 198.5 -114.999l108 125
c1.33301 1.33301 3.83301 2.33301 7.5 3s6.16699 0.333984 7.5 -0.999023l55 -47c4 -5.33301 4 -10 0 -14l-113 -129c56 -64 99 -137.667 129 -221s45 -175 45 -275c0 -100.667 -16.333 -195 -49 -283s-79 -164.5 -139 -229.5s-132.333 -116.333 -217 -154
s-179 -56.5 -283 -56.5c-87.333 0 -167.5 12.667 -240.5 38s-138.833 60.666 -197.5 105.999l-115 -131c-4 -4.66699 -8.66699 -5.33398 -14 -2.00098l-55 47c-4 5.33301 -4 10 0 14zM1272 653c0 74 -7.83203 145.166 -23.499 213.499s-39.834 131.166 -72.501 188.499
l-730 -824c45.333 -51.333 98.333 -92.166 159 -122.499s128.667 -45.5 204 -45.5c78 0 146 15.833 204 47.5s106 74.334 144 128.001s66.667 116 86 187s29 146.833 29 227.5zM758.002 1317c-76.667 0 -144.667 -15.332 -204 -45.999s-109.5 -72.334 -150.5 -125.001
s-72.5 -114.5 -94.5 -185.5s-33 -146.167 -33 -225.5s9.66699 -155.5 29 -228.5s48 -139.5 86 -199.5l731 826c-43.333 57.333 -95.5 102.333 -156.5 135s-130.167 49 -207.5 49z" />
    <glyph glyph-name="Ugrave" unicode="&#xd9;" horiz-adv-x="1470" 
d="M223 1278c0 6.66699 -3.33398 10.002 -10.001 10.002l-172 17c-6.66699 0 -10 3.33301 -10 10v53c0 6.66699 3.33301 10 10 10h555c6.66699 0 10 -3.33301 10 -10v-53c0 -6.66699 -3.33301 -10 -10 -10l-184 -17c-7.33301 0 -11 -3.33301 -11 -10v-739
c0 -102 5.66699 -180.667 17 -236c8.66699 -42.667 26.334 -79.334 53.001 -110.001c71.333 -82 174.333 -123 309 -123c144.667 0 252.667 57.333 324 172c22.667 36 37.667 92.333 45 169c4 41.333 6 91.333 6 150v717c0 6.66699 -3.33301 10 -10 10l-174 17
c-6.66699 0 -10 3.33301 -10 10v53c0 6.66699 3.33301 10 10 10h475c6.66699 0 10 -3.33301 10 -10v-53c0 -6.66699 -3.33301 -10 -10 -10l-168 -17c-6.66699 0 -10 -3.33301 -10 -10v-709c0 -224 -46 -380.333 -138 -469c-89.333 -86 -215.333 -129 -378 -129
c-183.333 0 -321.333 46 -414 138c-40.667 40.667 -68.667 83 -84 127c-20.667 59.333 -31 135.666 -31 228.999v813zM663.999 1772c8 0 14.668 -3.66699 20.001 -11l145 -272c3.33301 -2.66699 4.16602 -5.66699 2.49902 -9s-4.5 -5 -8.5 -5h-61c-2.66699 0 -6 1 -10 3
s-7.66699 3.66699 -11 5l-262 272c-4 2.66699 -5 6.16699 -3 10.5s5 6.5 9 6.5h179z" />
    <glyph glyph-name="Uacute" unicode="&#xda;" horiz-adv-x="1470" 
d="M223 1278c0 6.66699 -3.33398 10.002 -10.001 10.002l-172 17c-6.66699 0 -10 3.33301 -10 10v53c0 6.66699 3.33301 10 10 10h555c6.66699 0 10 -3.33301 10 -10v-53c0 -6.66699 -3.33301 -10 -10 -10l-184 -17c-7.33301 0 -11 -3.33301 -11 -10v-739
c0 -102 5.66699 -180.667 17 -236c8.66699 -42.667 26.334 -79.334 53.001 -110.001c71.333 -82 174.333 -123 309 -123c144.667 0 252.667 57.333 324 172c22.667 36 37.667 92.333 45 169c4 41.333 6 91.333 6 150v717c0 6.66699 -3.33301 10 -10 10l-174 17
c-6.66699 0 -10 3.33301 -10 10v53c0 6.66699 3.33301 10 10 10h475c6.66699 0 10 -3.33301 10 -10v-53c0 -6.66699 -3.33301 -10 -10 -10l-168 -17c-6.66699 0 -10 -3.33301 -10 -10v-709c0 -224 -46 -380.333 -138 -469c-89.333 -86 -215.333 -129 -378 -129
c-183.333 0 -321.333 46 -414 138c-40.667 40.667 -68.667 83 -84 127c-20.667 59.333 -31 135.666 -31 228.999v813zM1047 1772c4 0 7.00098 -2.16699 9.00098 -6.5s1 -7.83301 -3 -10.5l-262 -272c-3.33301 -1.33301 -7 -3 -11 -5s-7.33301 -3 -10 -3h-61
c-4 0 -6.83301 1.66699 -8.5 5s-0.833984 6.33301 2.49902 9l145 272c5.33301 7.33301 12 11 20 11h179z" />
    <glyph glyph-name="Ucircumflex" unicode="&#xdb;" horiz-adv-x="1470" 
d="M223 1278c0 6.66699 -3.33398 10.002 -10.001 10.002l-172 17c-6.66699 0 -10 3.33301 -10 10v53c0 6.66699 3.33301 10 10 10h555c6.66699 0 10 -3.33301 10 -10v-53c0 -6.66699 -3.33301 -10 -10 -10l-184 -17c-7.33301 0 -11 -3.33301 -11 -10v-739
c0 -102 5.66699 -180.667 17 -236c8.66699 -42.667 26.334 -79.334 53.001 -110.001c71.333 -82 174.333 -123 309 -123c144.667 0 252.667 57.333 324 172c22.667 36 37.667 92.333 45 169c4 41.333 6 91.333 6 150v717c0 6.66699 -3.33301 10 -10 10l-174 17
c-6.66699 0 -10 3.33301 -10 10v53c0 6.66699 3.33301 10 10 10h475c6.66699 0 10 -3.33301 10 -10v-53c0 -6.66699 -3.33301 -10 -10 -10l-168 -17c-6.66699 0 -10 -3.33301 -10 -10v-709c0 -224 -46 -380.333 -138 -469c-89.333 -86 -215.333 -129 -378 -129
c-183.333 0 -321.333 46 -414 138c-40.667 40.667 -68.667 83 -84 127c-20.667 59.333 -31 135.666 -31 228.999v813zM825.999 1772c9.33301 0 16.002 -3.66699 20.002 -11l166 -272c1.33301 -2.66699 1.66602 -5.66699 0.999023 -9s-3 -5 -7 -5h-62c-4 0 -7.66699 1 -11 3
s-6.33301 3.66699 -9 5l-168 168l-168 -168c-2.66699 -2.66699 -5.66699 -4.66699 -9 -6s-7 -2 -11 -2h-62c-4 0 -6.33301 1.66699 -7 5s-0.333984 6.33301 0.999023 9l166 272c5.33301 7.33301 12 11 20 11h140z" />
    <glyph glyph-name="Udieresis" unicode="&#xdc;" horiz-adv-x="1470" 
d="M223 1278c0 6.66699 -3.33398 10.002 -10.001 10.002l-172 17c-6.66699 0 -10 3.33301 -10 10v53c0 6.66699 3.33301 10 10 10h555c6.66699 0 10 -3.33301 10 -10v-53c0 -6.66699 -3.33301 -10 -10 -10l-184 -17c-7.33301 0 -11 -3.33301 -11 -10v-739
c0 -102 5.66699 -180.667 17 -236c8.66699 -42.667 26.334 -79.334 53.001 -110.001c71.333 -82 174.333 -123 309 -123c144.667 0 252.667 57.333 324 172c22.667 36 37.667 92.333 45 169c4 41.333 6 91.333 6 150v717c0 6.66699 -3.33301 10 -10 10l-174 17
c-6.66699 0 -10 3.33301 -10 10v53c0 6.66699 3.33301 10 10 10h475c6.66699 0 10 -3.33301 10 -10v-53c0 -6.66699 -3.33301 -10 -10 -10l-168 -17c-6.66699 0 -10 -3.33301 -10 -10v-709c0 -224 -46 -380.333 -138 -469c-89.333 -86 -215.333 -129 -378 -129
c-183.333 0 -321.333 46 -414 138c-40.667 40.667 -68.667 83 -84 127c-20.667 59.333 -31 135.666 -31 228.999v813zM962.999 1704c13.333 0 26.5 -2.66699 39.5 -8s24 -12.5 33 -21.5s16.167 -20 21.5 -33s8 -26.167 8 -39.5c0 -14 -2.66699 -27.167 -8 -39.5
s-12.5 -22.833 -21.5 -31.5s-20 -15.834 -33 -21.501s-26.167 -8.5 -39.5 -8.5c-15.333 0 -29.166 2.83301 -41.499 8.5s-22.833 12.834 -31.5 21.501s-15.834 19.167 -21.501 31.5s-8.5 25.5 -8.5 39.5c0 13.333 2.83301 26.5 8.5 39.5s12.834 24 21.501 33
s19.167 16.167 31.5 21.5s26.166 8 41.499 8zM568.999 1704c15.333 0 29.166 -2.66699 41.499 -8s22.833 -12.5 31.5 -21.5s15.834 -20 21.501 -33s8.5 -26.167 8.5 -39.5c0 -14 -2.83301 -27.167 -8.5 -39.5s-12.834 -22.833 -21.501 -31.5s-19.167 -15.834 -31.5 -21.501
s-26.166 -8.5 -41.499 -8.5c-13.333 0 -26.5 2.83301 -39.5 8.5s-24 12.834 -33 21.501s-16.167 19.167 -21.5 31.5s-8 25.5 -8 39.5c0 13.333 2.66699 26.5 8 39.5s12.5 24 21.5 33s20 16.167 33 21.5s26.167 8 39.5 8z" />
    <glyph glyph-name="Yacute" unicode="&#xdd;" horiz-adv-x="1382" 
d="M1090 1276c1.33301 1.33301 2.00098 3.00098 2.00098 5.00098c0 7.33301 -3.66699 11 -11 11l-141 13c-6.66699 0 -10 3.33301 -10 10v53c0 6.66699 3.33301 10 10 10h424c6.66699 0 10 -3.33301 10 -10v-53c0 -6.66699 -3.33301 -10 -10 -10l-154 -15
c-3.33301 -0.666992 -6 -2 -8 -4l-407 -698c-1.33301 -2 -2 -5.33301 -2 -10v-478c0 -6.66699 3.33301 -10 10 -10l174 -16c6.66699 0 10 -3.66699 10 -11v-53c0 -6.66699 -3.33301 -10 -10 -10h-547c-6.66699 0 -10 3.33301 -10 10v53c0 7.33301 3.33301 11 10 11l174 16
c6.66699 0 10 3.33301 10 10v467c0 5.33301 -0.666992 9.66602 -2 12.999l-399 704c-2.66699 2.66699 -5.33398 4 -8.00098 4l-174 17c-7.33301 0 -11 3.33301 -11 10v53c0 6.66699 3.66699 10 11 10h544c7.33301 0 11 -3.33301 11 -10v-53c0 -6.66699 -3.66699 -10 -11 -10
l-147 -13c-4 0 -6.66699 -2 -8 -6s-1.33301 -7.33301 0 -10l328 -594zM1006 1772c4 0 7.00098 -2.16699 9.00098 -6.5s1 -7.83301 -3 -10.5l-262 -272c-3.33301 -1.33301 -7 -3 -11 -5s-7.33301 -3 -10 -3h-61c-4 0 -6.83301 1.66699 -8.5 5s-0.833984 6.33301 2.49902 9
l145 272c5.33301 7.33301 12 11 20 11h179z" />
    <glyph glyph-name="Thorn" unicode="&#xde;" horiz-adv-x="1208" 
d="M463 1047c-6.66699 0 -10 -3.66699 -10 -11v-581c0 -7.33301 3.33301 -11 10 -11h119c116 0 205.333 26 268 78s94 132 94 240c0 54.667 -10.167 100 -30.5 136s-48 65 -83 87s-75.333 37.833 -121 47.5s-94.5 14.5 -146.5 14.5h-100zM637 1378
c6.66699 0 9.99902 -3.33203 9.99902 -9.99902v-53c0 -6.66699 -3.33301 -10 -10 -10l-174 -17c-6.66699 0 -10 -3.33301 -10 -10v-127c0 -6.66699 3.33301 -10 10 -10h135c58.667 0 112.667 -2.5 162 -7.5s94 -14 134 -27s75.833 -30.667 107.5 -53
s58.834 -50.5 81.501 -84.5c22 -32.667 38.167 -68.167 48.5 -106.5s15.5 -75.833 15.5 -112.5c0 -54.667 -13 -106.334 -39 -155.001s-61.167 -91 -105.5 -127s-96.5 -65 -156.5 -87s-125 -33 -195 -33l-198 35v-283c0 -6.66699 3.33301 -10 10 -10l174 -16
c6.66699 0 10 -3.66699 10 -11v-53c0 -6.66699 -3.33301 -10 -10 -10h-551c-6.66699 -0 -10 3.33301 -10 10v53c0 7.33301 3.33301 11 10 11l174 16c6.66699 0 10 3.33301 10 10v1178c0 6.66699 -3.33301 10 -10 10l-174 17c-6.66699 0 -10 3.33301 -10 10v53
c0 6.66699 3.33301 10 10 10h551z" />
    <glyph glyph-name="germandbls" unicode="&#xdf;" horiz-adv-x="1282" 
d="M214 784c-2 1.33301 -4.33398 1.99805 -7.00098 1.99805h-152c-6.66699 0 -10 3.66699 -10 11v51c0 6.66699 3.33301 10 10 10l152 19c6.66699 0 10 3.33301 10 10v74c0 50 1.66699 93.5 5 130.5s9.16602 69.833 17.499 98.5s18.333 53.5 30 74.5
s26.167 41.167 43.5 60.5c37.333 39.333 83.666 69.333 138.999 90s113 31 173 31c47.333 0 93.5 -6.5 138.5 -19.5s85.333 -33.833 121 -62.5s64 -67.167 85 -115.5s31.5 -108.833 31.5 -181.5c0 -35.333 -3.33301 -72.833 -10 -112.5s-16.667 -82.167 -30 -127.5
c-3.33301 -4 -6.33301 -5.33301 -9 -4c-13.333 4 -27.833 7.16699 -43.5 9.5s-29.167 3.5 -40.5 3.5c-16 0 -32.5 -2.5 -49.5 -7.5s-32.333 -13 -46 -24s-24.667 -24.333 -33 -40s-12.5 -34.834 -12.5 -57.501c0 -20.667 3 -39.167 9 -55.5s14.833 -31 26.5 -44
s25.334 -24.333 41.001 -34s32.5 -17.834 50.5 -24.501l86 -35c28.667 -12 56 -26.333 82 -43s48.5 -35.167 67.5 -55.5s34.333 -43.166 46 -68.499s17.5 -53 17.5 -83c0 -44.667 -9.16699 -85.167 -27.5 -121.5s-42.5 -67.166 -72.5 -92.499s-63.833 -44.833 -101.5 -58.5
s-75.5 -20.5 -113.5 -20.5c-41.333 0 -82.166 4.5 -122.499 13.5s-80.166 20.167 -119.499 33.5c-6.66699 1.33301 -10 5 -10 11v237c0 5.33301 3.33301 8 10 8h63c3.33301 0 6 -1 8 -3s3 -3.66699 3 -5l32 -164c0 -2.66699 1.16699 -5 3.5 -7s4.16602 -3.66699 5.49902 -5
c18.667 -9.33301 40 -17.5 64 -24.5s47 -10.5 69 -10.5c20 0 39 3.83301 57 11.5s33.5 18 46.5 31s23.167 28.333 30.5 46s11 37.5 11 59.5c0 20 -3.33301 38.333 -10 55s-16.167 31.5 -28.5 44.5s-26.666 23.833 -42.999 32.5s-33.5 17 -51.5 25l-92 37
c-27.333 11.333 -53 24.833 -77 40.5s-44.833 34 -62.5 55s-31.667 45.167 -42 72.5s-15.5 58 -15.5 92c0 37.333 7.16699 71 21.5 101s33.5 55.5 57.5 76.5s51 38.333 81 52s61.333 23.167 94 28.5c5.33301 26 9.5 50.667 12.5 74s4.5 46 4.5 68
c0 92.667 -21.833 164.334 -65.5 215.001s-103.167 76 -178.5 76c-42.667 0 -77.5 -7.5 -104.5 -22.5s-48.5 -36.167 -64.5 -63.5s-27 -59.166 -33 -95.499s-9 -75.5 -9 -117.5v-953c0 -6.66699 3.33301 -10 10 -10l109 -14c6.66699 0 10 -3.66699 10 -11v-51
c0 -6.66699 -3.33301 -10 -10 -10h-455c-6.66699 -0 -10 3.33301 -10 10v51c0 7.33301 3.33301 11 10 11l160 14c6.66699 0 10 3.33301 10 10v682c0 2.66699 -1 4.66699 -3 6z" />
    <glyph glyph-name="agrave" unicode="&#xe0;" horiz-adv-x="907" 
d="M557 426c-70 -4 -122.668 -11.667 -158.001 -23c-9.33301 -2.66699 -25.666 -8 -48.999 -16c-70.667 -24 -106 -76.667 -106 -158c0 -87.333 43.667 -131 131 -131c25.333 0 56 6.33301 92 19c18 6.66699 44.667 19 80 37c6.66699 4.66699 10 8.66699 10 12v260z
M570.999 90c-86 -79.333 -179.334 -119.001 -280.001 -119.001c-104.667 0 -175.334 43 -212.001 129c-12 28 -18 58 -18 90c0 112.667 57.333 195.334 172 248.001c34.667 16 70 27.667 106 35c80 16.667 152.667 27.667 218 33v158c0 106 -52 159 -156 159
c-59.333 0 -111 -10.667 -155 -32c-4 -3.33301 -7.33301 -9 -10 -17l-29 -151c0 -6 -3.33301 -9 -10 -9h-64c-6.66699 0 -10 3 -10 9v227c0 4 3.33301 7.33301 10 10c108 38.667 210.333 58 307 58c136.667 0 225.334 -41 266.001 -123c15.333 -30.667 23 -69.667 23 -117
v-553c0 -5.33301 2.66699 -9.33301 8 -12l129 -37c6.66699 -4 10.334 -7.33301 11.001 -10v-35c-2.66699 -7.33301 -5.66699 -11 -9 -11l-270 -36c-6.66699 0 -10 3.33301 -10 10zM492.998 1018c4 -9.33301 0.333984 -13.999 -10.999 -13.999h-55
c-3.33301 0.666992 -6 2 -8 4l-266 354c-0.666992 1.33301 -1 2.66602 -1 3.99902c0 8 3 12 9 12h168c7.33301 0 12.666 -4 15.999 -12z" />
    <glyph glyph-name="aacute" unicode="&#xe1;" horiz-adv-x="907" 
d="M557 426c-70 -4 -122.668 -11.667 -158.001 -23c-9.33301 -2.66699 -25.666 -8 -48.999 -16c-70.667 -24 -106 -76.667 -106 -158c0 -87.333 43.667 -131 131 -131c25.333 0 56 6.33301 92 19c18 6.66699 44.667 19 80 37c6.66699 4.66699 10 8.66699 10 12v260z
M570.999 90c-86 -79.333 -179.334 -119.001 -280.001 -119.001c-104.667 0 -175.334 43 -212.001 129c-12 28 -18 58 -18 90c0 112.667 57.333 195.334 172 248.001c34.667 16 70 27.667 106 35c80 16.667 152.667 27.667 218 33v158c0 106 -52 159 -156 159
c-59.333 0 -111 -10.667 -155 -32c-4 -3.33301 -7.33301 -9 -10 -17l-29 -151c0 -6 -3.33301 -9 -10 -9h-64c-6.66699 0 -10 3 -10 9v227c0 4 3.33301 7.33301 10 10c108 38.667 210.333 58 307 58c136.667 0 225.334 -41 266.001 -123c15.333 -30.667 23 -69.667 23 -117
v-553c0 -5.33301 2.66699 -9.33301 8 -12l129 -37c6.66699 -4 10.334 -7.33301 11.001 -10v-35c-2.66699 -7.33301 -5.66699 -11 -9 -11l-270 -36c-6.66699 0 -10 3.33301 -10 10zM504.998 1366c2.66699 5.33301 5.00098 8.66699 7.00098 10s5 2 9 2h168
c4 0 6.66699 -2 8 -6s1.33301 -7.33301 0 -10l-266 -354c-2.66699 -2.66699 -5.33398 -4 -8.00098 -4h-55c-2.66699 0 -5.5 1.66699 -8.5 5s-3.83301 6.33301 -2.5 9z" />
    <glyph glyph-name="acircumflex" unicode="&#xe2;" horiz-adv-x="907" 
d="M557 426c-70 -4 -122.668 -11.667 -158.001 -23c-9.33301 -2.66699 -25.666 -8 -48.999 -16c-70.667 -24 -106 -76.667 -106 -158c0 -87.333 43.667 -131 131 -131c25.333 0 56 6.33301 92 19c18 6.66699 44.667 19 80 37c6.66699 4.66699 10 8.66699 10 12v260z
M570.999 90c-86 -79.333 -179.334 -119.001 -280.001 -119.001c-104.667 0 -175.334 43 -212.001 129c-12 28 -18 58 -18 90c0 112.667 57.333 195.334 172 248.001c34.667 16 70 27.667 106 35c80 16.667 152.667 27.667 218 33v158c0 106 -52 159 -156 159
c-59.333 0 -111 -10.667 -155 -32c-4 -3.33301 -7.33301 -9 -10 -17l-29 -151c0 -6 -3.33301 -9 -10 -9h-64c-6.66699 0 -10 3 -10 9v227c0 4 3.33301 7.33301 10 10c108 38.667 210.333 58 307 58c136.667 0 225.334 -41 266.001 -123c15.333 -30.667 23 -69.667 23 -117
v-553c0 -5.33301 2.66699 -9.33301 8 -12l129 -37c6.66699 -4 10.334 -7.33301 11.001 -10v-35c-2.66699 -7.33301 -5.66699 -11 -9 -11l-270 -36c-6.66699 0 -10 3.33301 -10 10zM616.998 1004c-1.33301 0 -3.33301 1.33301 -6 4l-182 219h-4l-182 -219
c-2.66699 -2.66699 -4.66699 -4 -6 -4h-58c-4 0 -6.66699 1.66699 -8 5s-1.33301 6.33301 0 9l174 354c1.33301 4 4 6 8 6h148c4 0 6.66699 -2 8 -6l174 -354c1.33301 -2.66699 1.33301 -5.66699 0 -9s-4 -5 -8 -5h-58z" />
    <glyph glyph-name="atilde" unicode="&#xe3;" horiz-adv-x="907" 
d="M557 426c-70 -4 -122.668 -11.667 -158.001 -23c-9.33301 -2.66699 -25.666 -8 -48.999 -16c-70.667 -24 -106 -76.667 -106 -158c0 -87.333 43.667 -131 131 -131c25.333 0 56 6.33301 92 19c18 6.66699 44.667 19 80 37c6.66699 4.66699 10 8.66699 10 12v260z
M570.999 90c-86 -79.333 -179.334 -119.001 -280.001 -119.001c-104.667 0 -175.334 43 -212.001 129c-12 28 -18 58 -18 90c0 112.667 57.333 195.334 172 248.001c34.667 16 70 27.667 106 35c80 16.667 152.667 27.667 218 33v158c0 106 -52 159 -156 159
c-59.333 0 -111 -10.667 -155 -32c-4 -3.33301 -7.33301 -9 -10 -17l-29 -151c0 -6 -3.33301 -9 -10 -9h-64c-6.66699 0 -10 3 -10 9v227c0 4 3.33301 7.33301 10 10c108 38.667 210.333 58 307 58c136.667 0 225.334 -41 266.001 -123c15.333 -30.667 23 -69.667 23 -117
v-553c0 -5.33301 2.66699 -9.33301 8 -12l129 -37c6.66699 -4 10.334 -7.33301 11.001 -10v-35c-2.66699 -7.33301 -5.66699 -11 -9 -11l-270 -36c-6.66699 0 -10 3.33301 -10 10zM760.998 1233c-20.667 -22 -41.165 -42.167 -61.498 -60.5s-40.166 -34.666 -59.499 -48.999
s-38.833 -25.666 -58.5 -33.999s-39.834 -12.5 -60.501 -12.5c-14.667 0 -31.334 4.83301 -50.001 14.5s-37.5 20.334 -56.5 32.001s-37.333 22.167 -55 31.5s-33.5 14 -47.5 14c-22 0 -44.5 -6.5 -67.5 -19.5s-48.167 -30.833 -75.5 -53.5c-4 -4 -8.66699 -4 -14 0l-35 41
c-2.66699 5.33301 -2 10 2 14c20 20.667 40 40.167 60 58.5s39.5 34.666 58.5 48.999s38.5 26 58.5 35s40 13.5 60 13.5c16.667 0 34.167 -4.83301 52.5 -14.5s37.166 -20.334 56.499 -32.001s37.833 -22.334 55.5 -32.001s33.167 -14.5 46.5 -14.5
c20.667 0 42 5.83301 64 17.5s48.667 30.5 80 56.5c5.33301 4 10 4 14 0l35 -41c2.66699 -5.33301 2 -10 -2 -14z" />
    <glyph glyph-name="adieresis" unicode="&#xe4;" horiz-adv-x="907" 
d="M557 426c-70 -4 -122.668 -11.667 -158.001 -23c-9.33301 -2.66699 -25.666 -8 -48.999 -16c-70.667 -24 -106 -76.667 -106 -158c0 -87.333 43.667 -131 131 -131c25.333 0 56 6.33301 92 19c18 6.66699 44.667 19 80 37c6.66699 4.66699 10 8.66699 10 12v260z
M570.999 90c-86 -79.333 -179.334 -119.001 -280.001 -119.001c-104.667 0 -175.334 43 -212.001 129c-12 28 -18 58 -18 90c0 112.667 57.333 195.334 172 248.001c34.667 16 70 27.667 106 35c80 16.667 152.667 27.667 218 33v158c0 106 -52 159 -156 159
c-59.333 0 -111 -10.667 -155 -32c-4 -3.33301 -7.33301 -9 -10 -17l-29 -151c0 -6 -3.33301 -9 -10 -9h-64c-6.66699 0 -10 3 -10 9v227c0 4 3.33301 7.33301 10 10c108 38.667 210.333 58 307 58c136.667 0 225.334 -41 266.001 -123c15.333 -30.667 23 -69.667 23 -117
v-553c0 -5.33301 2.66699 -9.33301 8 -12l129 -37c6.66699 -4 10.334 -7.33301 11.001 -10v-35c-2.66699 -7.33301 -5.66699 -11 -9 -11l-270 -36c-6.66699 0 -10 3.33301 -10 10zM604.998 1294c15.333 0 29.166 -2.66699 41.499 -8s22.833 -12.833 31.5 -22.5
s15.834 -20.667 21.501 -33s8.5 -25.166 8.5 -38.499c0 -14 -2.83301 -27 -8.5 -39s-12.834 -22.5 -21.501 -31.5s-19.167 -16.167 -31.5 -21.5s-26.166 -8 -41.499 -8c-13.333 0 -26.5 2.66699 -39.5 8s-24 12.5 -33 21.5s-16.167 19.5 -21.5 31.5s-8 25 -8 39
c0 13.333 2.66699 26.166 8 38.499s12.5 23.333 21.5 33s20 17.167 33 22.5s26.167 8 39.5 8zM248.998 1294c13.333 0 26.5 -2.66699 39.5 -8s24 -12.833 33 -22.5s16.167 -20.667 21.5 -33s8 -25.166 8 -38.499c0 -14 -2.66699 -27 -8 -39s-12.5 -22.5 -21.5 -31.5
s-20 -16.167 -33 -21.5s-26.167 -8 -39.5 -8c-15.333 0 -29.166 2.66699 -41.499 8s-22.833 12.5 -31.5 21.5s-15.834 19.5 -21.501 31.5s-8.5 25 -8.5 39c0 13.333 2.83301 26.166 8.5 38.499s12.834 23.333 21.501 33s19.167 17.167 31.5 22.5s26.166 8 41.499 8z" />
    <glyph glyph-name="aring" unicode="&#xe5;" horiz-adv-x="907" 
d="M557 426c-70 -4 -122.668 -11.667 -158.001 -23c-9.33301 -2.66699 -25.666 -8 -48.999 -16c-70.667 -24 -106 -76.667 -106 -158c0 -87.333 43.667 -131 131 -131c25.333 0 56 6.33301 92 19c18 6.66699 44.667 19 80 37c6.66699 4.66699 10 8.66699 10 12v260z
M570.999 90c-86 -79.333 -179.334 -119.001 -280.001 -119.001c-104.667 0 -175.334 43 -212.001 129c-12 28 -18 58 -18 90c0 112.667 57.333 195.334 172 248.001c34.667 16 70 27.667 106 35c80 16.667 152.667 27.667 218 33v158c0 106 -52 159 -156 159
c-59.333 0 -111 -10.667 -155 -32c-4 -3.33301 -7.33301 -9 -10 -17l-29 -151c0 -6 -3.33301 -9 -10 -9h-64c-6.66699 0 -10 3 -10 9v227c0 4 3.33301 7.33301 10 10c108 38.667 210.333 58 307 58c136.667 0 225.334 -41 266.001 -123c15.333 -30.667 23 -69.667 23 -117
v-553c0 -5.33301 2.66699 -9.33301 8 -12l129 -37c6.66699 -4 10.334 -7.33301 11.001 -10v-35c-2.66699 -7.33301 -5.66699 -11 -9 -11l-270 -36c-6.66699 0 -10 3.33301 -10 10zM426.998 1303c-30 0 -53.833 -10 -71.5 -30s-26.5 -44.333 -26.5 -73
s8.83301 -52.5 26.5 -71.5s41.5 -28.5 71.5 -28.5s54.167 9.5 72.5 28.5s27.5 42.833 27.5 71.5s-9.16699 53 -27.5 73s-42.5 30 -72.5 30zM426.998 1366c28.667 0 55.667 -4.5 81 -13.5s47.166 -21 65.499 -36s33.333 -32.333 45 -52s17.5 -41.167 17.5 -64.5
s-5.83301 -44.833 -17.5 -64.5s-26.667 -37 -45 -52s-40.166 -26.667 -65.499 -35s-52.333 -12.5 -81 -12.5s-55.334 4.16699 -80.001 12.5s-46.5 20 -65.5 35s-34 32.333 -45 52s-16.5 41.167 -16.5 64.5s5.5 44.833 16.5 64.5s26 37 45 52s40.833 27 65.5 36
s51.334 13.5 80.001 13.5z" />
    <glyph glyph-name="ae" unicode="&#xe6;" horiz-adv-x="1360" 
d="M1094 545c1.33301 40.667 -1.49805 78.167 -8.49805 112.5s-17.333 64 -31 89s-31.334 44.667 -53.001 59s-48.167 21.5 -79.5 21.5c-34.667 0 -64.5 -8.5 -89.5 -25.5s-45.833 -39.167 -62.5 -66.5s-29.334 -59 -38.001 -95s-13.667 -74 -15 -114zM487.502 429
c-16.333 -2 -32 -4.99902 -47 -8.99902s-29.667 -8.5 -44 -13.5l-46 -15.5c-16.333 -5.33301 -31.333 -13.833 -45 -25.5s-25 -24.667 -34 -39s-15.833 -30 -20.5 -47s-7 -33.833 -7 -50.5c0 -40.667 11.167 -73 33.5 -97s54.833 -36 97.5 -36
c9.33301 0 20.833 1.33301 34.5 4s28 6.5 43 11.5s30 10.5 45 16.5s27.5 12.333 37.5 19c4 3.33301 6.66699 5.66602 8 6.99902s2 3.33301 2 6v274c-22 -1.33301 -41.167 -3 -57.5 -5zM742.502 305.501c14.333 -43.667 34.1719 -82.001 59.5049 -115.001s56 -58.667 92 -77
s77.333 -27.5 124 -27.5c13.333 0 28.166 1.33301 44.499 4s34.166 6.83398 53.499 12.501s38.166 12.5 56.499 20.5s36.5 17.667 54.5 29c5.33301 4 9.33301 2.33301 12 -5l29 -49c2.66699 -5.33301 0.666992 -10 -6 -14c-53.333 -35.333 -108 -63 -164 -83
s-109.333 -30 -160 -30c-58.667 0 -115.334 12.667 -170.001 38s-101 60.666 -139 105.999c-26 -20.667 -53 -39.5 -81 -56.5s-56.667 -32 -86 -45s-58.666 -23.333 -87.999 -31s-58.333 -11.5 -87 -11.5c-31.333 0 -61 5.16699 -89 15.5s-52.333 25 -73 44
s-36.5 42.167 -47.5 69.5s-16.5 57.333 -16.5 90c0 33.333 4.16699 62.833 12.5 88.5s20 49.167 35 70.5s33.167 39.5 54.5 54.5s44.666 28.5 69.999 40.5c12.667 6 26.834 12 42.501 18s35.167 12.5 58.5 19.5s52 13.167 86 18.5s75.667 10.666 125 15.999v148
c0 34 -4.83301 61.5 -14.5 82.5s-22 37 -37 48s-31.667 18.5 -50 22.5s-36.5 6 -54.5 6c-22 0 -45.167 -2.33301 -69.5 -7s-48.833 -13 -73.5 -25c-4 -3.33301 -7.33301 -9 -10 -17l-29 -151c0 -3.33301 -1 -5.66602 -3 -6.99902s-4.33301 -2 -7 -2h-64
c-6.66699 0 -10 3 -10 9v227c0 4 3.33301 7.33301 10 10l69 21.5c24 7.66699 48.5 13.834 73.5 18.501s50.167 8.83398 75.5 12.501s51 5.5 77 5.5c27.333 0 54 -1.83301 80 -5.5s50.167 -9.83398 72.5 -18.501s42.5 -20.5 60.5 -35.5s33 -33.5 45 -55.5
c38 36.667 79.667 65 125 85s89.666 30 132.999 30c49.333 0 94.5 -8 135.5 -24s76.167 -39.667 105.5 -71s52.166 -70.5 68.499 -117.5s24.5 -101.833 24.5 -164.5c0 -11.333 -0.333008 -22.333 -1 -33s-1.66699 -21.667 -3 -33c0 -2.66699 -0.666992 -5 -2 -7s-4 -3 -8 -3
l-547 -19c2.66699 -50 11.167 -96.833 25.5 -140.5z" />
    <glyph glyph-name="ccedilla" unicode="&#xe7;" horiz-adv-x="913" 
d="M535 918c43.333 0 87.833 -3.82617 133.5 -11.4932s90.5 -19.834 134.5 -36.501c6.66699 -2.66699 10 -6 10 -10v-237c0 -6 -3.33301 -9 -10 -9h-64c-2.66699 0 -5 0.666992 -7 2s-3 3.66602 -3 6.99902l-33 155c0 4 -2.66699 8.33301 -8 13
c-28.667 13.333 -56.334 23.333 -83.001 30s-52.334 10 -77.001 10c-40.667 0 -78.5 -8.83301 -113.5 -26.5s-64.667 -41.834 -89 -72.501s-43.333 -66.834 -57 -108.501s-20.5 -86.5 -20.5 -134.5c0 -54 6.5 -105.667 19.5 -155s32.833 -92.333 59.5 -129
s60.334 -65.667 101.001 -87s89 -32 145 -32c42.667 0 83.834 6.83301 123.501 20.5s75.834 31.5 108.501 53.5c4 2.66699 6.66699 3.33398 8 2.00098s2.66602 -3.33301 3.99902 -6l29 -50c2.66699 -5.33301 0.666992 -10 -6 -14c-48 -34 -97 -62 -147 -84
s-105 -34.333 -165 -37l-10 -69c44 -8.66699 76.833 -27.334 98.5 -56.001s32.5 -59.334 32.5 -92.001c0 -34 -8.83301 -63.667 -26.5 -89s-40.167 -46.5 -67.5 -63.5s-57 -30 -89 -39s-62.333 -13.5 -91 -13.5h-17.5c-9 0 -18.167 1.66699 -27.5 5
c-1.33301 0 -3 1.33301 -5 4s-2.33301 5.33398 -1 8.00098l10 49c0 1.33301 1.33301 3 4 5s4.66699 3 6 3c19.333 0 38.833 1.33301 58.5 4s37.667 8.16699 54 16.5s29.666 19.333 39.999 33s15.5 30.834 15.5 51.501c0 12 -2.66699 23.833 -8 35.5s-13.5 21.167 -24.5 28.5
s-23.667 13.166 -38 17.499s-29.833 5.83301 -46.5 4.5c-2.66699 0 -5 0.666992 -7 2s-1.66699 4.66602 1 9.99902l70 145c-60 4 -114.333 17.333 -163 40s-90 53.5 -124 92.5s-60.167 84.667 -78.5 137s-27.5 110.833 -27.5 175.5c0 73.333 12.5 141.166 37.5 203.499
s58.667 115.666 101 159.999s91.833 78.5 148.5 102.5s117.334 36 182.001 36z" />
    <glyph glyph-name="egrave" unicode="&#xe8;" horiz-adv-x="940" 
d="M477 827c-106.667 0 -175.667 -59.333 -207 -178c-9.33301 -35.333 -15.333 -70 -18 -104h418c6 188 -58.333 282 -193 282zM250 465c2.66699 -111.333 28.666 -200.001 77.999 -266.001c56.667 -75.333 138.334 -113 245.001 -113c85.333 0 165.333 23.333 240 70
c2.66699 2.66699 5 3.33398 7 2.00098c1.33301 -2 3 -4 5 -6l29 -50c1.33301 -6 -0.666992 -10.667 -6 -14c-116.667 -78 -234.667 -117 -354 -117c-133.333 0 -238.333 41.333 -315 124c-75.333 80 -113 187 -113 321c0 137.333 36.667 253 110 347
c80 103.333 186.667 155 320 155c118 0 207.667 -33.667 269 -101c59.333 -65.333 89 -157.333 89 -276c0 -21.333 -1.33301 -43.333 -4 -66c0 -6.66699 -3.33301 -10 -10 -10h-590zM560.999 1018c4 -9.33301 0.333984 -13.999 -10.999 -13.999h-55
c-3.33301 0.666992 -6 2 -8 4l-266 354c-0.666992 1.33301 -1 2.66602 -1 3.99902c0 8 3 12 9 12h168c7.33301 0 12.666 -4 15.999 -12z" />
    <glyph glyph-name="eacute" unicode="&#xe9;" horiz-adv-x="940" 
d="M477 827c-106.667 0 -175.667 -59.333 -207 -178c-9.33301 -35.333 -15.333 -70 -18 -104h418c6 188 -58.333 282 -193 282zM250 465c2.66699 -111.333 28.666 -200.001 77.999 -266.001c56.667 -75.333 138.334 -113 245.001 -113c85.333 0 165.333 23.333 240 70
c2.66699 2.66699 5 3.33398 7 2.00098c1.33301 -2 3 -4 5 -6l29 -50c1.33301 -6 -0.666992 -10.667 -6 -14c-116.667 -78 -234.667 -117 -354 -117c-133.333 0 -238.333 41.333 -315 124c-75.333 80 -113 187 -113 321c0 137.333 36.667 253 110 347
c80 103.333 186.667 155 320 155c118 0 207.667 -33.667 269 -101c59.333 -65.333 89 -157.333 89 -276c0 -21.333 -1.33301 -43.333 -4 -66c0 -6.66699 -3.33301 -10 -10 -10h-590zM575.999 1366c2.66699 5.33301 5.00098 8.66699 7.00098 10s5 2 9 2h168
c4 0 6.66699 -2 8 -6s1.33301 -7.33301 0 -10l-266 -354c-2.66699 -2.66699 -5.33398 -4 -8.00098 -4h-55c-2.66699 0 -5.5 1.66699 -8.5 5s-3.83301 6.33301 -2.5 9z" />
    <glyph glyph-name="ecircumflex" unicode="&#xea;" horiz-adv-x="940" 
d="M477 827c-106.667 0 -175.667 -59.333 -207 -178c-9.33301 -35.333 -15.333 -70 -18 -104h418c6 188 -58.333 282 -193 282zM250 465c2.66699 -111.333 28.666 -200.001 77.999 -266.001c56.667 -75.333 138.334 -113 245.001 -113c85.333 0 165.333 23.333 240 70
c2.66699 2.66699 5 3.33398 7 2.00098c1.33301 -2 3 -4 5 -6l29 -50c1.33301 -6 -0.666992 -10.667 -6 -14c-116.667 -78 -234.667 -117 -354 -117c-133.333 0 -238.333 41.333 -315 124c-75.333 80 -113 187 -113 321c0 137.333 36.667 253 110 347
c80 103.333 186.667 155 320 155c118 0 207.667 -33.667 269 -101c59.333 -65.333 89 -157.333 89 -276c0 -21.333 -1.33301 -43.333 -4 -66c0 -6.66699 -3.33301 -10 -10 -10h-590zM686.999 1004c-1.33301 0 -3.33301 1.33301 -6 4l-182 219h-4l-182 -219
c-2.66699 -2.66699 -4.66699 -4 -6 -4h-58c-4 0 -6.66699 1.66699 -8 5s-1.33301 6.33301 0 9l174 354c1.33301 4 4 6 8 6h148c4 0 6.66699 -2 8 -6l174 -354c1.33301 -2.66699 1.33301 -5.66699 0 -9s-4 -5 -8 -5h-58z" />
    <glyph glyph-name="edieresis" unicode="&#xeb;" horiz-adv-x="940" 
d="M477 827c-106.667 0 -175.667 -59.333 -207 -178c-9.33301 -35.333 -15.333 -70 -18 -104h418c6 188 -58.333 282 -193 282zM250 465c2.66699 -111.333 28.666 -200.001 77.999 -266.001c56.667 -75.333 138.334 -113 245.001 -113c85.333 0 165.333 23.333 240 70
c2.66699 2.66699 5 3.33398 7 2.00098c1.33301 -2 3 -4 5 -6l29 -50c1.33301 -6 -0.666992 -10.667 -6 -14c-116.667 -78 -234.667 -117 -354 -117c-133.333 0 -238.333 41.333 -315 124c-75.333 80 -113 187 -113 321c0 137.333 36.667 253 110 347
c80 103.333 186.667 155 320 155c118 0 207.667 -33.667 269 -101c59.333 -65.333 89 -157.333 89 -276c0 -21.333 -1.33301 -43.333 -4 -66c0 -6.66699 -3.33301 -10 -10 -10h-590zM666.999 1294c15.333 0 29.166 -2.66699 41.499 -8s22.833 -12.833 31.5 -22.5
s15.834 -20.667 21.501 -33s8.5 -25.166 8.5 -38.499c0 -14 -2.83301 -27 -8.5 -39s-12.834 -22.5 -21.501 -31.5s-19.167 -16.167 -31.5 -21.5s-26.166 -8 -41.499 -8c-13.333 0 -26.5 2.66699 -39.5 8s-24 12.5 -33 21.5s-16.167 19.5 -21.5 31.5s-8 25 -8 39
c0 13.333 2.66699 26.166 8 38.499s12.5 23.333 21.5 33s20 17.167 33 22.5s26.167 8 39.5 8zM310.999 1294c13.333 0 26.5 -2.66699 39.5 -8s24 -12.833 33 -22.5s16.167 -20.667 21.5 -33s8 -25.166 8 -38.499c0 -14 -2.66699 -27 -8 -39s-12.5 -22.5 -21.5 -31.5
s-20 -16.167 -33 -21.5s-26.167 -8 -39.5 -8c-15.333 0 -29.166 2.66699 -41.499 8s-22.833 12.5 -31.5 21.5s-15.834 19.5 -21.501 31.5s-8.5 25 -8.5 39c0 13.333 2.83301 26.166 8.5 38.499s12.834 23.333 21.501 33s19.167 17.167 31.5 22.5s26.166 8 41.499 8z" />
    <glyph glyph-name="igrave" unicode="&#xec;" horiz-adv-x="592" 
d="M59 10l0.000976562 51c0 7.33301 3.66699 11 11 11l143 14c6.66699 0 10 3.33301 10 10v676c0 6.66699 -3.33301 10 -10 10l-147 17c-7.33301 0 -11 3.33301 -11 10v47c0 1.33301 0.666992 3.33301 2 6s3.33301 4 6 4l246 41c5.33301 1.33301 9.66602 2 12.999 2h8h49
c6.66699 0 10 -3.33301 10 -10v-803c0 -6.66699 3.33301 -10 10 -10l133 -14c7.33301 0 11 -3.66699 11 -11v-51c0 -6.66699 -3.66699 -10 -11 -10h-462c-7.33301 -0 -11 3.33301 -11 10zM355.001 1018c4 -9.33301 0.333984 -13.999 -10.999 -13.999h-55
c-3.33301 0.666992 -6 2 -8 4l-266 354c-0.666992 1.33301 -1 2.66602 -1 3.99902c0 8 3 12 9 12h168c7.33301 0 12.666 -4 15.999 -12z" />
    <glyph glyph-name="iacute" unicode="&#xed;" horiz-adv-x="592" 
d="M59 10l0.000976562 51c0 7.33301 3.66699 11 11 11l143 14c6.66699 0 10 3.33301 10 10v676c0 6.66699 -3.33301 10 -10 10l-147 17c-7.33301 0 -11 3.33301 -11 10v47c0 1.33301 0.666992 3.33301 2 6s3.33301 4 6 4l246 41c5.33301 1.33301 9.66602 2 12.999 2h8h49
c6.66699 0 10 -3.33301 10 -10v-803c0 -6.66699 3.33301 -10 10 -10l133 -14c7.33301 0 11 -3.66699 11 -11v-51c0 -6.66699 -3.66699 -10 -11 -10h-462c-7.33301 -0 -11 3.33301 -11 10zM367.001 1366c2.66699 5.33301 5.00098 8.66699 7.00098 10s5 2 9 2h168
c4 0 6.66699 -2 8 -6s1.33301 -7.33301 0 -10l-266 -354c-2.66699 -2.66699 -5.33398 -4 -8.00098 -4h-55c-2.66699 0 -5.5 1.66699 -8.5 5s-3.83301 6.33301 -2.5 9z" />
    <glyph glyph-name="icircumflex" unicode="&#xee;" horiz-adv-x="592" 
d="M59 10l0.000976562 51c0 7.33301 3.66699 11 11 11l143 14c6.66699 0 10 3.33301 10 10v676c0 6.66699 -3.33301 10 -10 10l-147 17c-7.33301 0 -11 3.33301 -11 10v47c0 1.33301 0.666992 3.33301 2 6s3.33301 4 6 4l246 41c5.33301 1.33301 9.66602 2 12.999 2h8h49
c6.66699 0 10 -3.33301 10 -10v-803c0 -6.66699 3.33301 -10 10 -10l133 -14c7.33301 0 11 -3.66699 11 -11v-51c0 -6.66699 -3.66699 -10 -11 -10h-462c-7.33301 -0 -11 3.33301 -11 10zM478.001 1004c-1.33301 0 -3.33301 1.33301 -6 4l-182 219h-4l-182 -219
c-2.66699 -2.66699 -4.66699 -4 -6 -4h-58c-4 0 -6.66699 1.66699 -8 5s-1.33301 6.33301 0 9l174 354c1.33301 4 4 6 8 6h148c4 0 6.66699 -2 8 -6l174 -354c1.33301 -2.66699 1.33301 -5.66699 0 -9s-4 -5 -8 -5h-58z" />
    <glyph glyph-name="idieresis" unicode="&#xef;" horiz-adv-x="592" 
d="M59 10l0.000976562 51c0 7.33301 3.66699 11 11 11l143 14c6.66699 0 10 3.33301 10 10v676c0 6.66699 -3.33301 10 -10 10l-147 17c-7.33301 0 -11 3.33301 -11 10v47c0 1.33301 0.666992 3.33301 2 6s3.33301 4 6 4l246 41c5.33301 1.33301 9.66602 2 12.999 2h8h49
c6.66699 0 10 -3.33301 10 -10v-803c0 -6.66699 3.33301 -10 10 -10l133 -14c7.33301 0 11 -3.66699 11 -11v-51c0 -6.66699 -3.66699 -10 -11 -10h-462c-7.33301 -0 -11 3.33301 -11 10zM466.001 1294c15.333 0 29.166 -2.66699 41.499 -8s22.833 -12.833 31.5 -22.5
s15.834 -20.667 21.501 -33s8.5 -25.166 8.5 -38.499c0 -14 -2.83301 -27 -8.5 -39s-12.834 -22.5 -21.501 -31.5s-19.167 -16.167 -31.5 -21.5s-26.166 -8 -41.499 -8c-13.333 0 -26.5 2.66699 -39.5 8s-24 12.5 -33 21.5s-16.167 19.5 -21.5 31.5s-8 25 -8 39
c0 13.333 2.66699 26.166 8 38.499s12.5 23.333 21.5 33s20 17.167 33 22.5s26.167 8 39.5 8zM110.001 1294c13.333 0 26.5 -2.66699 39.5 -8s24 -12.833 33 -22.5s16.167 -20.667 21.5 -33s8 -25.166 8 -38.499c0 -14 -2.66699 -27 -8 -39s-12.5 -22.5 -21.5 -31.5
s-20 -16.167 -33 -21.5s-26.167 -8 -39.5 -8c-15.333 0 -29.166 2.66699 -41.499 8s-22.833 12.5 -31.5 21.5s-15.834 19.5 -21.501 31.5s-8.5 25 -8.5 39c0 13.333 2.83301 26.166 8.5 38.499s12.834 23.333 21.501 33s19.167 17.167 31.5 22.5s26.166 8 41.499 8z" />
    <glyph glyph-name="eth" unicode="&#xf0;" 
d="M288 1086.5c0.666992 3.66699 1.66602 6.16309 2.99902 7.49609l194 133c-28.667 30 -59.334 58.667 -92.001 86s-66.667 53.333 -102 78c-1.33301 1.33301 -2 3.33301 -2 6s0.666992 4.66699 2 6l33 47c2.66699 2.66699 5.33398 3.66699 8.00098 3
s5.33398 -1.66699 8.00098 -3c35.333 -15.333 73.5 -38 114.5 -68s80.5 -62 118.5 -96l193 131c4 4 8.66699 3.33301 14 -2l43 -59c4 -4 3.33301 -9 -2 -15l-178 -122c45.333 -49.333 87 -102.333 125 -159s71 -116.167 99 -178.5s50.167 -127.166 66.5 -194.499
s24.5 -137.333 24.5 -210c0 -68 -9.5 -132.833 -28.5 -194.5s-47.333 -115.334 -85 -161.001s-84.834 -82.167 -141.501 -109.5s-121.667 -41 -195 -41c-72.667 0 -136.167 11.333 -190.5 34s-100.333 54.834 -138 96.501s-66 90.834 -85 147.501s-28.5 119.667 -28.5 189
c0 72.667 11.167 138.334 33.5 197.001s54 109.167 95 151.5s88.833 74.833 143.5 97.5s114.667 34 180 34c14 0 29.833 -1.5 47.5 -4.5s35.334 -7.16699 53.001 -12.5s35 -12.5 52 -21.5s32.5 -18.833 46.5 -29.5c-15.333 52 -37.333 104.167 -66 156.5
s-62.667 102.5 -102 150.5l-207 -139c-1.33301 -1.33301 -3.33301 -1.66602 -6 -0.999023s-5.33398 1.66699 -8.00098 3l-39 59c-1.33301 1.33301 -1.66602 3.83301 -0.999023 7.5zM491.999 828.996c-44 0 -81.3301 -10.166 -111.997 -30.499s-55.667 -46.5 -75 -78.5
s-33 -68.5 -41 -109.5s-12 -82.833 -12 -125.5c0 -52.667 5.16699 -104.334 15.5 -155.001s26.666 -96.167 48.999 -136.5s51.333 -72.833 87 -97.5s78.5 -37 128.5 -37c44 0 81 10 111 30s54.5 46 73.5 78s32.667 68.833 41 110.5s12.5 84.5 12.5 128.5
c0 50 -4.83301 100.667 -14.5 152s-25.334 96.833 -47.001 136.5s-50.334 72 -86.001 97s-79.167 37.5 -130.5 37.5z" />
    <glyph glyph-name="ntilde" unicode="&#xf1;" horiz-adv-x="1159" 
d="M309 907c7.33301 1.33301 11.667 2.00098 13 2.00098h57c6.66699 0 10 -3.33301 10 -10v-88c61.333 48.667 136.666 82.667 225.999 102c27.333 6 57.333 9 90 9c176 0 264 -99 264 -297v-529c0 -6.66699 3.33301 -10 10 -10l133 -14c6.66699 0 10 -3.66699 10 -11v-51
c0 -6.66699 -3.33301 -10 -10 -10h-448c-7.33301 0 -11 3.33301 -11 10v51c0 7.33301 3.66699 11 11 11l129 14c6.66699 0 10 3.33301 10 10v469c0 73.333 -13 127.333 -39 162c-30 39.333 -80.667 59 -152 59c-80.667 0 -151.667 -15.667 -213 -47
c-5.33301 -2.66699 -8.66602 -5.33398 -9.99902 -8.00098v-635c0 -6.66699 3.33301 -10 10 -10l129 -14c7.33301 0 11 -3.66699 11 -11v-51c0 -6.66699 -3.66699 -10 -11 -10h-458c-7.33301 -0 -11 3.33301 -11 10v51c0 7.33301 3.66699 11 11 11l143 14
c6.66699 0 10 3.33301 10 10v676c0 6.66699 -3.33301 10 -10 10l-147 17c-7.33301 0 -11 3.33301 -11 10v47c0 6.66699 2.66699 10 8 10zM912.001 1233c-20.667 -22 -41.165 -42.167 -61.498 -60.5s-40.166 -34.666 -59.499 -48.999s-38.833 -25.666 -58.5 -33.999
s-39.834 -12.5 -60.501 -12.5c-14.667 0 -31.334 4.83301 -50.001 14.5s-37.5 20.334 -56.5 32.001s-37.333 22.167 -55 31.5s-33.5 14 -47.5 14c-22 0 -44.5 -6.5 -67.5 -19.5s-48.167 -30.833 -75.5 -53.5c-4 -4 -8.66699 -4 -14 0l-35 41c-2.66699 5.33301 -2 10 2 14
c20 20.667 40 40.167 60 58.5s39.5 34.666 58.5 48.999s38.5 26 58.5 35s40 13.5 60 13.5c16.667 0 34.167 -4.83301 52.5 -14.5s37.166 -20.334 56.499 -32.001s37.833 -22.334 55.5 -32.001s33.167 -14.5 46.5 -14.5c20.667 0 42 5.83301 64 17.5s48.667 30.5 80 56.5
c5.33301 4 10 4 14 0l35 -41c2.66699 -5.33301 2 -10 -2 -14z" />
    <glyph glyph-name="ograve" unicode="&#xf2;" horiz-adv-x="1040" 
d="M500 829c-88.667 0 -154.333 -37.334 -197 -112.001c-34 -59.333 -51 -136.666 -51 -231.999c0 -191.333 51.333 -321 154 -389c37.333 -24.667 82.333 -37 135 -37c164.667 0 247 115.667 247 347c0 114 -19.333 207.667 -58 281c-49.333 94.667 -126 142 -230 142z
M526.001 917.999c144 0 255.333 -42.001 334 -126.001c76.667 -82 115 -195.667 115 -341c0 -139.333 -41.333 -253.666 -124 -342.999c-85.333 -91.333 -197 -137 -335 -137c-142.667 0 -253.667 42.667 -333 128c-78 82.667 -117 195.667 -117 339
c0 141.333 41 256 123 344c84.667 90.667 197 136 337 136zM588.001 1018c4 -9.33301 0.333984 -13.999 -10.999 -13.999h-55c-3.33301 0.666992 -6 2 -8 4l-266 354c-0.666992 1.33301 -1 2.66602 -1 3.99902c0 8 3 12 9 12h168c7.33301 0 12.666 -4 15.999 -12z" />
    <glyph glyph-name="oacute" unicode="&#xf3;" horiz-adv-x="1040" 
d="M500 829c-88.667 0 -154.333 -37.334 -197 -112.001c-34 -59.333 -51 -136.666 -51 -231.999c0 -191.333 51.333 -321 154 -389c37.333 -24.667 82.333 -37 135 -37c164.667 0 247 115.667 247 347c0 114 -19.333 207.667 -58 281c-49.333 94.667 -126 142 -230 142z
M526.001 917.999c144 0 255.333 -42.001 334 -126.001c76.667 -82 115 -195.667 115 -341c0 -139.333 -41.333 -253.666 -124 -342.999c-85.333 -91.333 -197 -137 -335 -137c-142.667 0 -253.667 42.667 -333 128c-78 82.667 -117 195.667 -117 339
c0 141.333 41 256 123 344c84.667 90.667 197 136 337 136zM600.001 1366c2.66699 5.33301 5.00098 8.66699 7.00098 10s5 2 9 2h168c4 0 6.66699 -2 8 -6s1.33301 -7.33301 0 -10l-266 -354c-2.66699 -2.66699 -5.33398 -4 -8.00098 -4h-55c-2.66699 0 -5.5 1.66699 -8.5 5
s-3.83301 6.33301 -2.5 9z" />
    <glyph glyph-name="ocircumflex" unicode="&#xf4;" horiz-adv-x="1040" 
d="M500 829c-88.667 0 -154.333 -37.334 -197 -112.001c-34 -59.333 -51 -136.666 -51 -231.999c0 -191.333 51.333 -321 154 -389c37.333 -24.667 82.333 -37 135 -37c164.667 0 247 115.667 247 347c0 114 -19.333 207.667 -58 281c-49.333 94.667 -126 142 -230 142z
M526.001 917.999c144 0 255.333 -42.001 334 -126.001c76.667 -82 115 -195.667 115 -341c0 -139.333 -41.333 -253.666 -124 -342.999c-85.333 -91.333 -197 -137 -335 -137c-142.667 0 -253.667 42.667 -333 128c-78 82.667 -117 195.667 -117 339
c0 141.333 41 256 123 344c84.667 90.667 197 136 337 136zM710.001 1004c-1.33301 0 -3.33301 1.33301 -6 4l-182 219h-4l-182 -219c-2.66699 -2.66699 -4.66699 -4 -6 -4h-58c-4 0 -6.66699 1.66699 -8 5s-1.33301 6.33301 0 9l174 354c1.33301 4 4 6 8 6h148
c4 0 6.66699 -2 8 -6l174 -354c1.33301 -2.66699 1.33301 -5.66699 0 -9s-4 -5 -8 -5h-58z" />
    <glyph glyph-name="otilde" unicode="&#xf5;" horiz-adv-x="1040" 
d="M500 829c-88.667 0 -154.333 -37.334 -197 -112.001c-34 -59.333 -51 -136.666 -51 -231.999c0 -191.333 51.333 -321 154 -389c37.333 -24.667 82.333 -37 135 -37c164.667 0 247 115.667 247 347c0 114 -19.333 207.667 -58 281c-49.333 94.667 -126 142 -230 142z
M526.001 917.999c144 0 255.333 -42.001 334 -126.001c76.667 -82 115 -195.667 115 -341c0 -139.333 -41.333 -253.666 -124 -342.999c-85.333 -91.333 -197 -137 -335 -137c-142.667 0 -253.667 42.667 -333 128c-78 82.667 -117 195.667 -117 339
c0 141.333 41 256 123 344c84.667 90.667 197 136 337 136zM850.001 1233c-20.667 -22 -41.165 -42.167 -61.498 -60.5s-40.166 -34.666 -59.499 -48.999s-38.833 -25.666 -58.5 -33.999s-39.834 -12.5 -60.501 -12.5c-14.667 0 -31.334 4.83301 -50.001 14.5
s-37.5 20.334 -56.5 32.001s-37.333 22.167 -55 31.5s-33.5 14 -47.5 14c-22 0 -44.5 -6.5 -67.5 -19.5s-48.167 -30.833 -75.5 -53.5c-4 -4 -8.66699 -4 -14 0l-35 41c-2.66699 5.33301 -2 10 2 14c20 20.667 40 40.167 60 58.5s39.5 34.666 58.5 48.999s38.5 26 58.5 35
s40 13.5 60 13.5c16.667 0 34.167 -4.83301 52.5 -14.5s37.166 -20.334 56.499 -32.001s37.833 -22.334 55.5 -32.001s33.167 -14.5 46.5 -14.5c20.667 0 42 5.83301 64 17.5s48.667 30.5 80 56.5c5.33301 4 10 4 14 0l35 -41c2.66699 -5.33301 2 -10 -2 -14z" />
    <glyph glyph-name="odieresis" unicode="&#xf6;" horiz-adv-x="1040" 
d="M500 829c-88.667 0 -154.333 -37.334 -197 -112.001c-34 -59.333 -51 -136.666 -51 -231.999c0 -191.333 51.333 -321 154 -389c37.333 -24.667 82.333 -37 135 -37c164.667 0 247 115.667 247 347c0 114 -19.333 207.667 -58 281c-49.333 94.667 -126 142 -230 142z
M526.001 917.999c144 0 255.333 -42.001 334 -126.001c76.667 -82 115 -195.667 115 -341c0 -139.333 -41.333 -253.666 -124 -342.999c-85.333 -91.333 -197 -137 -335 -137c-142.667 0 -253.667 42.667 -333 128c-78 82.667 -117 195.667 -117 339
c0 141.333 41 256 123 344c84.667 90.667 197 136 337 136zM698.001 1294c15.333 0 29.166 -2.66699 41.499 -8s22.833 -12.833 31.5 -22.5s15.834 -20.667 21.501 -33s8.5 -25.166 8.5 -38.499c0 -14 -2.83301 -27 -8.5 -39s-12.834 -22.5 -21.501 -31.5
s-19.167 -16.167 -31.5 -21.5s-26.166 -8 -41.499 -8c-13.333 0 -26.5 2.66699 -39.5 8s-24 12.5 -33 21.5s-16.167 19.5 -21.5 31.5s-8 25 -8 39c0 13.333 2.66699 26.166 8 38.499s12.5 23.333 21.5 33s20 17.167 33 22.5s26.167 8 39.5 8zM342.001 1294
c13.333 0 26.5 -2.66699 39.5 -8s24 -12.833 33 -22.5s16.167 -20.667 21.5 -33s8 -25.166 8 -38.499c0 -14 -2.66699 -27 -8 -39s-12.5 -22.5 -21.5 -31.5s-20 -16.167 -33 -21.5s-26.167 -8 -39.5 -8c-15.333 0 -29.166 2.66699 -41.499 8s-22.833 12.5 -31.5 21.5
s-15.834 19.5 -21.501 31.5s-8.5 25 -8.5 39c0 13.333 2.83301 26.166 8.5 38.499s12.834 23.333 21.501 33s19.167 17.167 31.5 22.5s26.166 8 41.499 8z" />
    <glyph glyph-name="divide" unicode="&#xf7;" 
d="M512 903c13.333 0 26.5 -2.66699 39.5 -8s24.333 -13.166 34 -23.499s17.5 -22 23.5 -35s9 -26.167 9 -39.5c0 -15.333 -3 -29.166 -9 -41.499s-13.833 -23.166 -23.5 -32.499s-21 -16.833 -34 -22.5s-26.167 -8.5 -39.5 -8.5s-26.5 2.83301 -39.5 8.5
s-24.333 13.167 -34 22.5s-17.167 20.166 -22.5 32.499s-8 26.166 -8 41.499c0 13.333 2.66699 26.5 8 39.5s12.833 24.667 22.5 35s21 18.166 34 23.499s26.167 8 39.5 8zM512 250c13.333 0 26.5 -2.83301 39.5 -8.5s24.333 -13.167 34 -22.5s17.5 -20.5 23.5 -33.5
s9 -27.167 9 -42.5c0 -13.333 -3 -26.5 -9 -39.5s-13.833 -24.333 -23.5 -34s-21 -17.167 -34 -22.5s-26.167 -8 -39.5 -8s-26.5 2.66699 -39.5 8s-24.333 12.833 -34 22.5s-17.167 21 -22.5 34s-8 26.167 -8 39.5c0 15.333 2.66699 29.5 8 42.5s12.833 24.167 22.5 33.5
s21 16.833 34 22.5s26.167 8.5 39.5 8.5zM62.5 512c3.66699 4 6.83301 6 9.5 6h880c7.33301 0 11 -3.33301 11 -10v-74c0 -6.66699 -3.66699 -10 -11 -10h-880c-7.33301 0 -11 3.33301 -11 10v74c-2.66699 -1.33301 -2.16699 0 1.5 4z" />
    <glyph glyph-name="oslash" unicode="&#xf8;" horiz-adv-x="1040" 
d="M788 406c0 38 -2.66699 75.332 -8 111.999s-13.333 72.334 -24 107.001l-428 -451c22.667 -35.333 51.5 -63.333 86.5 -84s77.167 -31 126.5 -31c46 0 85.167 10 117.5 30s58 46 77 78s32.5 68.833 40.5 110.5s12 84.5 12 128.5zM500 828.999
c-48 0 -87.667 -10.167 -119 -30.5s-56.666 -46.5 -75.999 -78.5s-33 -68.5 -41 -109.5s-12 -82.833 -12 -125.5c0 -39.333 2.66699 -77.5 8 -114.5s13.666 -72.5 24.999 -106.5l430 449c-22 35.333 -50.833 63.5 -86.5 84.5s-78.5 31.5 -128.5 31.5zM928 923.999
l51 -49.999c4 -5.33301 4 -10 0 -14l-94 -100c30 -40 52.5 -86.167 67.5 -138.5s22.5 -109.166 22.5 -170.499c0 -72.667 -11.333 -138.334 -34 -197.001s-54.5 -108.834 -95.5 -150.501s-89.5 -74.167 -145.5 -97.5s-117.333 -35 -184 -35
c-62.667 0 -118.667 7.5 -168 22.5s-92.333 37.5 -129 67.5l-88 -92c-4 -5.33301 -8.66699 -5.33301 -14 0l-56 47c-2.66699 1.33301 -4 3.66602 -4 6.99902c0 4 1.33301 6.66699 4 8l95 98c-30 39.333 -52.5 85 -67.5 137s-22.5 109.333 -22.5 172
c0 72.667 11.167 138.334 33.5 197.001s54 109.167 95 151.5s89.5 74.833 145.5 97.5s118 34 186 34c63.333 0 119.5 -8 168.5 -24s91.833 -39 128.5 -69l90 97c6 5.33301 11 6 15 2z" />
    <glyph glyph-name="ugrave" unicode="&#xf9;" horiz-adv-x="1108" 
d="M743 96c-97.333 -83.333 -199.667 -125.001 -307 -125.001c-78 0 -141.667 22.667 -191 68c-51.333 46.667 -77 108.667 -77 186v547c0 6.66699 -3.33301 10 -10 10l-148 17c-6.66699 0 -10 3.33301 -10 10v47c0 6.66699 2.66699 10 8 10l246 41
c2 0.666992 5.33301 1.33398 10 2.00098h60c6.66699 0 10 -3.33301 10 -10v-602c0 -127.333 64 -191 192 -191c66 0 133.667 21.333 203 64c6.66699 4 10 8 10 12v590c0 6.66699 -3.33301 10 -10 10l-147 17c-7.33301 0 -11 3.33301 -11 10v47c0 6.66699 3 10 9 10l245 41
c2.66699 0.666992 7 1.33398 13 2.00098h57c6.66699 0 10 -3.33301 10 -10v-801c0 -6.66699 3.33301 -10 10 -10l148 -16c6.66699 0 10 -3.66699 10 -11v-47c0 -6 -2.66699 -9.33301 -8 -10l-305 -20c-6 -0.666992 -9.33301 2.66602 -10 9.99902zM589.999 1018
c4 -9.33301 0.333984 -13.999 -10.999 -13.999h-55c-3.33301 0.666992 -6 2 -8 4l-266 354c-0.666992 1.33301 -1 2.66602 -1 3.99902c0 8 3 12 9 12h168c7.33301 0 12.666 -4 15.999 -12z" />
    <glyph glyph-name="uacute" unicode="&#xfa;" horiz-adv-x="1108" 
d="M743 96c-97.333 -83.333 -199.667 -125.001 -307 -125.001c-78 0 -141.667 22.667 -191 68c-51.333 46.667 -77 108.667 -77 186v547c0 6.66699 -3.33301 10 -10 10l-148 17c-6.66699 0 -10 3.33301 -10 10v47c0 6.66699 2.66699 10 8 10l246 41
c2 0.666992 5.33301 1.33398 10 2.00098h60c6.66699 0 10 -3.33301 10 -10v-602c0 -127.333 64 -191 192 -191c66 0 133.667 21.333 203 64c6.66699 4 10 8 10 12v590c0 6.66699 -3.33301 10 -10 10l-147 17c-7.33301 0 -11 3.33301 -11 10v47c0 6.66699 3 10 9 10l245 41
c2.66699 0.666992 7 1.33398 13 2.00098h57c6.66699 0 10 -3.33301 10 -10v-801c0 -6.66699 3.33301 -10 10 -10l148 -16c6.66699 0 10 -3.66699 10 -11v-47c0 -6 -2.66699 -9.33301 -8 -10l-305 -20c-6 -0.666992 -9.33301 2.66602 -10 9.99902zM602.999 1366
c2.66699 5.33301 5.00098 8.66699 7.00098 10s5 2 9 2h168c4 0 6.66699 -2 8 -6s1.33301 -7.33301 0 -10l-266 -354c-2.66699 -2.66699 -5.33398 -4 -8.00098 -4h-55c-2.66699 0 -5.5 1.66699 -8.5 5s-3.83301 6.33301 -2.5 9z" />
    <glyph glyph-name="ucircumflex" unicode="&#xfb;" horiz-adv-x="1108" 
d="M743 96c-97.333 -83.333 -199.667 -125.001 -307 -125.001c-78 0 -141.667 22.667 -191 68c-51.333 46.667 -77 108.667 -77 186v547c0 6.66699 -3.33301 10 -10 10l-148 17c-6.66699 0 -10 3.33301 -10 10v47c0 6.66699 2.66699 10 8 10l246 41
c2 0.666992 5.33301 1.33398 10 2.00098h60c6.66699 0 10 -3.33301 10 -10v-602c0 -127.333 64 -191 192 -191c66 0 133.667 21.333 203 64c6.66699 4 10 8 10 12v590c0 6.66699 -3.33301 10 -10 10l-147 17c-7.33301 0 -11 3.33301 -11 10v47c0 6.66699 3 10 9 10l245 41
c2.66699 0.666992 7 1.33398 13 2.00098h57c6.66699 0 10 -3.33301 10 -10v-801c0 -6.66699 3.33301 -10 10 -10l148 -16c6.66699 0 10 -3.66699 10 -11v-47c0 -6 -2.66699 -9.33301 -8 -10l-305 -20c-6 -0.666992 -9.33301 2.66602 -10 9.99902zM711.999 1004
c-1.33301 0 -3.33301 1.33301 -6 4l-182 219h-4l-182 -219c-2.66699 -2.66699 -4.66699 -4 -6 -4h-58c-4 0 -6.66699 1.66699 -8 5s-1.33301 6.33301 0 9l174 354c1.33301 4 4 6 8 6h148c4 0 6.66699 -2 8 -6l174 -354c1.33301 -2.66699 1.33301 -5.66699 0 -9s-4 -5 -8 -5
h-58z" />
    <glyph glyph-name="udieresis" unicode="&#xfc;" horiz-adv-x="1108" 
d="M743 96c-97.333 -83.333 -199.667 -125.001 -307 -125.001c-78 0 -141.667 22.667 -191 68c-51.333 46.667 -77 108.667 -77 186v547c0 6.66699 -3.33301 10 -10 10l-148 17c-6.66699 0 -10 3.33301 -10 10v47c0 6.66699 2.66699 10 8 10l246 41
c2 0.666992 5.33301 1.33398 10 2.00098h60c6.66699 0 10 -3.33301 10 -10v-602c0 -127.333 64 -191 192 -191c66 0 133.667 21.333 203 64c6.66699 4 10 8 10 12v590c0 6.66699 -3.33301 10 -10 10l-147 17c-7.33301 0 -11 3.33301 -11 10v47c0 6.66699 3 10 9 10l245 41
c2.66699 0.666992 7 1.33398 13 2.00098h57c6.66699 0 10 -3.33301 10 -10v-801c0 -6.66699 3.33301 -10 10 -10l148 -16c6.66699 0 10 -3.66699 10 -11v-47c0 -6 -2.66699 -9.33301 -8 -10l-305 -20c-6 -0.666992 -9.33301 2.66602 -10 9.99902zM700.999 1294
c15.333 0 29.166 -2.66699 41.499 -8s22.833 -12.833 31.5 -22.5s15.834 -20.667 21.501 -33s8.5 -25.166 8.5 -38.499c0 -14 -2.83301 -27 -8.5 -39s-12.834 -22.5 -21.501 -31.5s-19.167 -16.167 -31.5 -21.5s-26.166 -8 -41.499 -8c-13.333 0 -26.5 2.66699 -39.5 8
s-24 12.5 -33 21.5s-16.167 19.5 -21.5 31.5s-8 25 -8 39c0 13.333 2.66699 26.166 8 38.499s12.5 23.333 21.5 33s20 17.167 33 22.5s26.167 8 39.5 8zM344.999 1294c13.333 0 26.5 -2.66699 39.5 -8s24 -12.833 33 -22.5s16.167 -20.667 21.5 -33s8 -25.166 8 -38.499
c0 -14 -2.66699 -27 -8 -39s-12.5 -22.5 -21.5 -31.5s-20 -16.167 -33 -21.5s-26.167 -8 -39.5 -8c-15.333 0 -29.166 2.66699 -41.499 8s-22.833 12.5 -31.5 21.5s-15.834 19.5 -21.501 31.5s-8.5 25 -8.5 39c0 13.333 2.83301 26.166 8.5 38.499s12.834 23.333 21.501 33
s19.167 17.167 31.5 22.5s26.166 8 41.499 8z" />
    <glyph glyph-name="yacute" unicode="&#xfd;" horiz-adv-x="1061" 
d="M444 889c7.33301 0 11.001 -3.33496 11.001 -10.002v-52c0 -5.33301 -3 -8 -9 -8l-106 -12c-9.33301 0 -12 -4.66699 -8 -14l241 -584l248 584c4 9.33301 1.33301 14 -8 14l-106 12c-6 0 -9 2.66699 -9 8v52c0 6.66699 3.66699 10 11 10h329
c7.33301 0 11 -3.33301 11 -10v-50c0 -6.66699 -3.66699 -10 -11 -10l-112 -12c-3.33301 -0.666992 -6 -2.66699 -8 -6l-367 -864c-132 -310 -246.667 -465 -344 -465c-4 0 -8.66699 1.33301 -14 4l-97 96c-4.66699 4.66699 -5.33398 9.33398 -2.00098 14.001l25 41
c2.66699 2.66699 6 4 10 4c64.667 0 117.334 15 158.001 45c32 24 66.667 67.333 104 130c23.333 38.667 52 97.334 86 176.001c2.66699 6 2.66699 14.667 0 26l-334 791c-2.66699 4 -5.33398 6 -8.00098 6l-119 14c-5.33301 0 -8 2.66699 -8 8v52
c0 6.66699 3.33301 10 10 10h426zM643.001 1366c2.66699 5.33301 5.00098 8.66699 7.00098 10s5 2 9 2h168c4 0 6.66699 -2 8 -6s1.33301 -7.33301 0 -10l-266 -354c-2.66699 -2.66699 -5.33398 -4 -8.00098 -4h-55c-2.66699 0 -5.5 1.66699 -8.5 5s-3.83301 6.33301 -2.5 9
z" />
    <glyph glyph-name="thorn" unicode="&#xfe;" horiz-adv-x="1069" 
d="M381.5 92c11.667 -5.33301 25.0029 -10.3311 40.0029 -14.998s31 -8.16699 48 -10.5s34.167 -3.5 51.5 -3.5c48 0 90.5 9.66699 127.5 29s68 45.666 93 78.999s44 73.166 57 119.499s19.5 96.166 19.5 149.499c0 44 -4.33301 86.5 -13 127.5s-23.334 77.5 -44.001 109.5
s-47.334 57.5 -80.001 76.5s-72.334 28.5 -119.001 28.5c-34 0 -68 -4.66699 -102 -14s-65.333 -23 -94 -41c-2.66699 -1.33301 -5.16699 -2.66602 -7.5 -3.99902s-3.5 -4 -3.5 -8v-606c6 -6 14.833 -11.667 26.5 -17zM179.003 1319l-159 15.998
c-7.33301 0 -11 3.66699 -11 11v47c0 2.66699 0.666992 5 2 7s3.66602 3 6.99902 3l258 41c4 1.33301 7.33301 2 10 2h6h53c6.66699 0 10 -3.33301 10 -10v-633c16.667 14.667 36.334 28.834 59.001 42.501s46.167 26 70.5 37s50.5 19.667 78.5 26s57 9.5 87 9.5
c56 0 105.833 -11.667 149.5 -35s80.667 -54.833 111 -94.5s53.333 -84.667 69 -135s23.5 -102.166 23.5 -155.499c0 -72.667 -11.667 -140.667 -35 -204s-56.5 -119 -99.5 -167s-95.167 -86 -156.5 -114s-130.333 -42 -207 -42c-49.333 0 -99.333 5.66699 -150 17v-394
c0 -6.66699 3.66699 -10 11 -10l157 -14c7.33301 0 11 -3.33301 11 -10v-52c0 -6.66699 -3.66699 -10 -11 -10h-487c-6.66699 0 -10 3.33301 -10 10v52c0 6.66699 3.33301 10 10 10l143 14c7.33301 0 11 3.33301 11 10v1715c0 6.66699 -3.66699 10 -11 10z" />
    <glyph glyph-name="ydieresis" unicode="&#xff;" horiz-adv-x="1061" 
d="M444 889c7.33301 0 11.001 -3.33496 11.001 -10.002v-52c0 -5.33301 -3 -8 -9 -8l-106 -12c-9.33301 0 -12 -4.66699 -8 -14l241 -584l248 584c4 9.33301 1.33301 14 -8 14l-106 12c-6 0 -9 2.66699 -9 8v52c0 6.66699 3.66699 10 11 10h329
c7.33301 0 11 -3.33301 11 -10v-50c0 -6.66699 -3.66699 -10 -11 -10l-112 -12c-3.33301 -0.666992 -6 -2.66699 -8 -6l-367 -864c-132 -310 -246.667 -465 -344 -465c-4 0 -8.66699 1.33301 -14 4l-97 96c-4.66699 4.66699 -5.33398 9.33398 -2.00098 14.001l25 41
c2.66699 2.66699 6 4 10 4c64.667 0 117.334 15 158.001 45c32 24 66.667 67.333 104 130c23.333 38.667 52 97.334 86 176.001c2.66699 6 2.66699 14.667 0 26l-334 791c-2.66699 4 -5.33398 6 -8.00098 6l-119 14c-5.33301 0 -8 2.66699 -8 8v52
c0 6.66699 3.33301 10 10 10h426zM741.001 1294c15.333 0 29.166 -2.66699 41.499 -8s22.833 -12.833 31.5 -22.5s15.834 -20.667 21.501 -33s8.5 -25.166 8.5 -38.499c0 -14 -2.83301 -27 -8.5 -39s-12.834 -22.5 -21.501 -31.5s-19.167 -16.167 -31.5 -21.5
s-26.166 -8 -41.499 -8c-13.333 0 -26.5 2.66699 -39.5 8s-24 12.5 -33 21.5s-16.167 19.5 -21.5 31.5s-8 25 -8 39c0 13.333 2.66699 26.166 8 38.499s12.5 23.333 21.5 33s20 17.167 33 22.5s26.167 8 39.5 8zM385.001 1294c13.333 0 26.5 -2.66699 39.5 -8
s24 -12.833 33 -22.5s16.167 -20.667 21.5 -33s8 -25.166 8 -38.499c0 -14 -2.66699 -27 -8 -39s-12.5 -22.5 -21.5 -31.5s-20 -16.167 -33 -21.5s-26.167 -8 -39.5 -8c-15.333 0 -29.166 2.66699 -41.499 8s-22.833 12.5 -31.5 21.5s-15.834 19.5 -21.501 31.5
s-8.5 25 -8.5 39c0 13.333 2.83301 26.166 8.5 38.499s12.834 23.333 21.501 33s19.167 17.167 31.5 22.5s26.166 8 41.499 8z" />
    <glyph glyph-name="Amacron" unicode="&#x100;" horiz-adv-x="1454" 
d="M698 1102c-2.66699 4 -5.33398 6 -8.00098 6c-4 0 -6.66699 -2 -8 -6l-193 -490c-4 -9.33301 -1 -14 9 -14h370c10.667 0 14.334 4.66699 11.001 14zM897 0c-6.66699 0 -10 3.33496 -10 10.002v53c0 7.33301 3.33301 11 10 11l160 16c4 0 6.66699 1.33301 8 4
s1.33301 6 0 10l-152 402c-2.66699 4 -5.33398 6 -8.00098 6h-446c-3.33301 -0.666992 -6 -2.66699 -8 -6l-162 -406c-3.33301 -8.66699 0 -13.334 10 -14.001l154 -12c6.66699 -0.666992 10 -4.33398 10 -11.001v-53c0 -6.66699 -3.33301 -10 -10 -10h-443
c-6.66699 -0 -10 3.33301 -10 10v53c0 7.33301 3.33301 11 10 11l168 16c3.33301 0.666992 6 2.66699 8 6l521 1311c2.66699 4 5.33398 6 8.00098 6h51c3.33301 -0.666992 6 -2.66699 8 -6l479 -1309c1.33301 -4 4.33301 -6 9 -6l163 -18c6 0 9 -3.66699 9 -11v-53
c0 -6.66699 -3.66699 -10 -11 -10h-526zM417 1546v90c0 7.33301 3.66699 11 11 11h626c7.33301 0 11 -3.66699 11 -11v-90c0 -6.66699 -3.66699 -10 -11 -10h-626c-7.33301 0 -11 3.33301 -11 10z" />
    <glyph glyph-name="amacron" unicode="&#x101;" horiz-adv-x="907" 
d="M557 426c-70 -4 -122.668 -11.667 -158.001 -23c-9.33301 -2.66699 -25.666 -8 -48.999 -16c-70.667 -24 -106 -76.667 -106 -158c0 -87.333 43.667 -131 131 -131c25.333 0 56 6.33301 92 19c18 6.66699 44.667 19 80 37c6.66699 4.66699 10 8.66699 10 12v260z
M570.999 90c-86 -79.333 -179.334 -119.001 -280.001 -119.001c-104.667 0 -175.334 43 -212.001 129c-12 28 -18 58 -18 90c0 112.667 57.333 195.334 172 248.001c34.667 16 70 27.667 106 35c80 16.667 152.667 27.667 218 33v158c0 106 -52 159 -156 159
c-59.333 0 -111 -10.667 -155 -32c-4 -3.33301 -7.33301 -9 -10 -17l-29 -151c0 -6 -3.33301 -9 -10 -9h-64c-6.66699 0 -10 3 -10 9v227c0 4 3.33301 7.33301 10 10c108 38.667 210.333 58 307 58c136.667 0 225.334 -41 266.001 -123c15.333 -30.667 23 -69.667 23 -117
v-553c0 -5.33301 2.66699 -9.33301 8 -12l129 -37c6.66699 -4 10.334 -7.33301 11.001 -10v-35c-2.66699 -7.33301 -5.66699 -11 -9 -11l-270 -36c-6.66699 0 -10 3.33301 -10 10zM127.998 1098v90c0 6.66699 3.33301 10 10 10h586c6.66699 0 10 -3.33301 10 -10v-90
c0 -7.33301 -3.33301 -11 -10 -11h-586c-6.66699 0 -10 3.66699 -10 11z" />
    </font>
</defs>
</svg>
